<?xml version="1.0" standalone="no"?>
<!DOCTYPE svg PUBLIC "-//W3C//DTD SVG 1.1//EN" "http://www.w3.org/Graphics/SVG/1.1/DTD/svg11.dtd" >
<svg xmlns="http://www.w3.org/2000/svg">
<metadata></metadata>
<defs>
<font id="dist_yolks_emoticonsregular" horiz-adv-x="1695" >
<font-face units-per-em="2048" ascent="1638" descent="-410" />
<missing-glyph horiz-adv-x="512" />
<glyph horiz-adv-x="0" />
<glyph horiz-adv-x="682" />
<glyph unicode=" "  horiz-adv-x="512" />
<glyph unicode="&#x09;" horiz-adv-x="512" />
<glyph unicode="&#xa0;" horiz-adv-x="512" />
<glyph unicode="'" d="M100 606v166q0 527 590 715l182 12q276 0 517 -223q210 -207 210 -563q0 -370 -378 -607q-147 -100 -363 -106q-564 0 -758 606zM129 575q39 -99 92 -120h45q165 0 180 196l-2 17l-116 424q-30 0 -138 -304q-61 -113 -61 -213zM176 834l6 -27l103 301 q-109 -154 -109 -274zM252 410q236 -365 606 -365q449 0 666 485l30 211v17q0 213 -75 213l-166 -33v33l135 45h45v14q-109 238 -317 336q-158 76 -242 76h-62q-372 0 -589 -322h14l31 31q137 -375 137 -514v-45q0 -168 -213 -168v-14zM479 971v28q191 111 363 138 q170 0 258 -166h-45q-104 90 -166 90h-62q-92 0 -272 -107zM707 682v14l135 121h30v-14q0 -31 -45 -31v-31q120 -135 273 -135h168l14 15h14v-29l-196 -31q-166 0 -318 152z" />
<glyph unicode="," horiz-adv-x="2799" d="M113.5 432q-0.5 21 0.5 45.5t3.5 58t5 62t7 63.5t6.5 55.5t5.5 45t3.5 26.5q8 64 38.5 206t37.5 155l23 78l6 6h20q2 0 9.5 0.5t11.5 0.5t10 -2t10 -5q277 -262 418 -432q2 -5 -1.5 -7t-9.5 -2.5t-11 -4t-5 -11.5v-3q5 -50 13 -245v-51q-10 0 -17.5 7t-12 19t-7 22.5 t-4 24t-2.5 15.5q-3 9 -8 89t-7 87l-6 96q-160 185 -358 328q-11 -7 -21 -26.5t-12 -30.5l-100 -533l-17 -147q0 -9 -8 -19l-8 -8q-6 -3 -9.5 6.5t-4 30.5zM133 358q0 6 4.5 11.5t9 8.5t13 8.5t10.5 6.5q188 86 324 84q73 0 108 -14l-10 -4q-171 -12 -273 -53 q-11 -5 -42.5 -25.5t-59.5 -34.5t-49 -14q-35 0 -35 26zM279 569q6 8 55 318q10 15 6 25.5t-0.5 16t25.5 5.5q18 -1 22.5 -4.5t20.5 -22.5l104 -131v-8q-11 0 -28.5 8.5t-30.5 18t-31.5 24t-22.5 17.5q-1 0 -3.5 1t-4.5 1q-13 1 -19.5 -22t-10 -54.5t-5.5 -38.5 q-1 -5 -7 -25l-13.5 -45t-9.5 -30q-1 -2 -7.5 -19.5t-7.5 -19.5q-1 0 -0.5 -1.5t1.5 -4t1 -3.5h2q11 7 36.5 19t33.5 12q3 3 23 10t43 14.5t26 8.5q15 5 21 27.5t7 46.5t14 43.5t40 19.5q25 0 25 -18q2 -5 -38 -88.5t-44 -83.5q-6 0 -8 10t-11 10q-34 1 -92.5 -33.5 t-77.5 -40.5q-11 -4 -22.5 9.5t-11.5 27.5zM750 772q0 16 57.5 43t77.5 27q4 -3 20 -5t26 -7.5t7 -16.5v-4l-6 -31q-6 -32 -8 -37q-2 -8 -17 -53.5t-27 -86t-12 -52.5l-6 -12h-8q-9 49 11.5 139t19.5 129q-16 -1 -33 -13.5t-32.5 -28.5t-20.5 -20q-4 -3 -6.5 -15t-2.5 -27.5 t0.5 -29t1.5 -25.5l1 -11q3 -54 3.5 -97.5t-0.5 -59.5l-1 -17l2 -12q1 -4 8 3t20.5 23.5t24.5 26.5q5 7 20.5 12.5t22.5 5.5l-2 -10q-25 -25 -41 -49q-4 -6 -16 -26t-20.5 -30.5t-14.5 -9.5q-12 2 -17.5 6t-4 10.5t3 10t7.5 12.5q1 3 -6 8t-8 11q-14 29 -20 77l-2 211 q4 2 1 15t-3 16zM954 599.5v31v31.5q0 6 1 41.5t1 41.5l7 21q1 1 4.5 3.5t6.5 5t3 3.5l-6 10q5 33 100 52.5t148 19.5q4 0 7 -2.5t1.5 -7t-8.5 -10.5q-34 -29 -75.5 -34.5t-75 -8t-52.5 -25.5l-10 -2q0 -18 -6 -46.5t-7 -43.5v-207q0 -1 -2.5 -3.5t-3.5 -2.5q-2 -2 -4 -2 q-8 0 -14 18q-4 17 -7 33.5t-4.5 27t-2.5 30t-1 26zM958 201q1 13 22 29.5t36 19.5q6 1 83 -6t83 -6q5 0 10 16q1 8 -4 41.5t-10.5 69.5t-6.5 41v57q3 3 5 6.5t-2 5.5q-35 0 -92.5 -34.5t-84.5 -34.5q-1 0 -7.5 2t-8.5 2q-1 1 -3 1.5t-3 1t-1.5 2t-0.5 5.5q1 27 78.5 58.5 t111.5 31.5q37 0 51 -23q0 -2 1.5 -11.5t1.5 -10.5q-1 -34 3 -124.5t3 -131.5l-13 -6q-18 1 -45 3t-78.5 4.5t-64.5 0.5h-6q-17 -8 -17 -10q3 -13 5 -17l18 -28q4 -11 16 -11q-1 3 26 5.5t58.5 4.5t36.5 3q37 8 69 16t45.5 12t26 6t23.5 1q2 0 10 -1.5t10 -1.5q5 -2 5 -10 l-172 -55q-22 -4 -50 -6.5t-48.5 -3.5t-24.5 -2q-44 -11 -86 61l-3.5 7t-2 4.5t-1.5 2.5t-1 2v2t-0.5 3.5t-0.5 5.5zM1040 633v13v17t0.5 16.5t2.5 17t5.5 13t9 10t13.5 3.5q7 -1 10.5 -4.5t8.5 -3.5q8 0 29 7t37.5 11.5t19.5 1.5v-4q0 -6 -11 -24l-16 -17q-3 -5 -32 -6.5 t-34 4.5q-4 -4 -6 -13t-2.5 -16t0 -18t0.5 -12q0 -3 1 -20t1 -21q1 -6 13 -6q10 0 47 13t41 19q8 56 8 80q0 2 0.5 7t1 6.5t1.5 5t3 5t5.5 2.5t8.5 1q19 0 19 -12l-2 -7q-1 -2 -8 -35.5t-9 -39.5v-13q-57 -63 -90 -63q-6 0 -9.5 1t-8 4t-8.5 5q-35 14 -42.5 24t-7.5 48z M1268 264q0 2 1 11t1 10t1 13t1 13q10 88 10 277.5t8 271.5q7 14 17 14q1 -1 7 -3t11.5 -4.5t7.5 -4.5v-28q0 -4 -3 -15t-3 -12q-3 -16 -9.5 -112.5t-6.5 -116.5q-3 -45 -5.5 -155t-5.5 -157v-12q-1 -11 -4.5 -16t-11.5 -5q-7 0 -9.5 2.5t-4.5 10.5q0 1 -1 9t-1 9zM1352 770 v4q16 20 50.5 37.5t59 21.5t31.5 -2l-6 -4q0 -1 -11 -9t-23 -17.5t-15 -12.5t-17 -11.5t-16 -10.5v-6l-2 -43v-12q2 -12 -5 -94.5t-7 -84.5v-14q-5 -12 -11 -41q-11 5 -17 15t-3 20q-1 15 0 96.5t0 95.5q-2 3 -4.5 36.5t-3.5 35.5zM1378 422q2 6 47 53l15 19l-4 2 q2 14 12.5 63.5t25.5 122t25 123.5q6 29 39 29q18 -3 18 -8q0 -3 -6 -9l-10 -43q-54 -164 -67 -221q0 -1 -3.5 -14.5t-3.5 -14.5v-6l4 -8q3 0 11 0.5t11.5 0t9 -1t7.5 -3t2 -6.5q0 -9 -26 -23q-14 -10 -41.5 -45.5t-48.5 -34.5q-5 0 -11 6.5t-6 18.5zM1552 739q1 36 94 60 t132 18q1 -10 -18.5 -20t-48.5 -19t-32 -10q-6 -3 -19.5 -10t-18 -10t-14 -9t-16 -12.5t-14.5 -15.5l11 -13q2 -8 2 -14t-1 -31t-2 -48t-2.5 -55t-3.5 -57.5t-4.5 -48.5t-6 -36t-7.5 -13l-10 8v5q-15 167 -10 280q1 4 4.5 9t3.5 12q0 6 -10 14.5t-9 15.5zM1606 403 q0 23 74 47.5t108 24.5q5 0 19.5 2t22.5 2.5t15 -2.5q45 -12 72 -22l2 -6q-21 -9 -51 -9q-9 0 -19 4.5t-14 4.5q-30 2 -56.5 -3.5t-41 -12.5t-45 -24t-47.5 -26q-13 0 -17 -2q-24 0 -22 22zM1659 659q0 1 1 12.5t1 12.5q3 1 6 -0.5t4 -1.5q19 12 71.5 29t67.5 16 q1 -13 -29 -28t-59.5 -29t-27.5 -23q1 -15 1 -41t0.5 -44t2.5 -25q1 -5 -0.5 -8t-2.5 -3h-1q5 -1 46.5 18t45.5 19q3 -1 3.5 -8t-3.5 -14t-10 -9q-2 -2 -33.5 -13.5t-34.5 -12.5q-14 4 -14 10q-1 2 -1 4t-1 2q-13 -4 -23 51t-10 86zM1774 1169q-1 13 26.5 21t55 7t40.5 -7 q3 -3 -8 -6q-6 -2 -26 -7q-46 -12 -58 -20q-4 -7 -11 -6t-19 18zM1780 1118l2 17l12 12l8 -2l8 -6l9 -9q1 0 2 -1t2 -3t0 -4q-3 -15 -8 -129.5t-3 -128.5q-6 -18 -6 -39q-4 -4 -6 -4q-6 1 -10.5 44t-6.5 102.5t-2.5 97t-0.5 53.5zM1803 595.5q0 27.5 2 54.5t7 26q3 -1 11 -1 t10 -1t0 -6v-6q-1 -6 -5.5 -47t-4.5 -46q-1 -1 -5 -6.5t-7 -7.5t-7 0q-1 13 -1 40.5zM1873.5 675.5q1.5 101.5 3.5 250t1 186.5q2 17 2 25q0 2 1 11.5t1 10.5q0 3 2 5t5.5 3t6 1t6.5 -0.5t5 -0.5q9 -3 18 -12q0 -2 -1 -13.5t-1 -13.5l-2 -24q1 -8 -4 -159.5t-4 -158.5 q-1 -13 -2 -36t-2 -39t-2.5 -38t-2.5 -38t-2.5 -33.5t-3.5 -29t-4.5 -21.5t-5.5 -14t-6 -2l-8 12q-2 27 -0.5 128.5zM1937 735q0 13 5.5 17t14 0.5t17.5 -11.5q3 -4 2 -16t-3.5 -29t-2.5 -18t-1 -8t-1 -8q0 -13 0.5 -43t0.5 -54.5t-1 -42.5q0 -50 -6 -47l-4 2q-3 3 -10.5 32 t-8.5 46q-2 32 -1.5 89.5t-0.5 90.5zM1978 444q5 7 7 9q29 19 65 27.5t69 7.5t72 -1l11 2q2 22 8.5 39t15.5 13q2 -1 5 -1.5t4.5 -1.5t4 -1.5t3.5 -1.5t2 -2.5t1 -3t-1 -3.5q-1 -3 -27 -34v-5q0 -4 6 -4l41 -2q11 -12 -29.5 -17t-99 -6.5t-70.5 -4.5q-13 -4 -27 -14 t-22.5 -15t-15.5 -2q-7 0 -16 9.5t-7 12.5zM1980 774q1 4 38 21t91.5 33t92.5 14q1 0 2 -1.5t1 -5t-3 -8.5l-164 -65l-35 -8q-10 -2 -21 12q-7 7 -2 8zM2003 659q1 3 4 22t4 21q0 4 3 5.5t7 1.5t7 1.5t2 4.5q-1 1 18 10t42.5 18t31.5 9q5 0 14 -1l10 -1q23 -2 31 -4.5 t11 -4.5t5.5 -16t6.5 -25q0 -1 2 -3.5t2 -4.5q-1 -11 -42 -30t-59 -19q-4 0 -8 4q-3 1 -5.5 -0.5t-2.5 -3.5l-2 -39q0 -4 8 -4q5 2 24.5 14.5t36 20t27.5 6.5q27 0 39 -8q12 -6 12 4q-6 26 -6.5 74.5t8.5 74.5q4 6 19.5 2t15.5 -16l-8 -92q1 -12 1 -38t-1 -38q0 -2 -10 -2 q-10 -1 -13.5 7t-5.5 9q-6 1 -19.5 -1t-29.5 -5t-20 -4l-90 -43q-5 -2 -8 9q-6 19 -3 53q1 34 9.5 41t25.5 -9q1 -1 6.5 3.5t11.5 9t7 4.5q2 1 24.5 8.5t28.5 13.5q-13 35 -16 35q-13 4 -55 -20.5t-56 -14.5q-3 2 -6.5 0.5t-3.5 -4.5q-8 -24 -8 -53q0 -4 -1 -31.5t-1 -31.5 q-6 -23 -9 -25q-5 -4 -9.5 8.5t-4.5 18.5q-2 27 -2 79zM2017 532q0 2 1 3.5t3 2t4 0.5t5 -0.5t4 -0.5t20.5 3.5t24.5 2.5h59q2 0 28 -1t27 -1q2 -4 2 -6q0 -6 -27 -9t-56.5 -4t-32.5 -2q-30 -10 -43 -10q-6 0 -12.5 7.5t-6.5 14.5zM2287 534q0 7 0.5 14.5t0.5 8.5v90 q0 3 1 35t1 45q1 7 6 12.5t7 7t-1 5.5q-3 -1 -5 1t-3 5v2q2 23 45 36t81.5 15t61.5 0q8 -1 19 -2t17 -1.5t13 -2.5t11 -6q5 -11 -7 -19q-106 7 -157 -12q-2 -3 -20 -9.5t-27 -6.5q-4 -5 -4.5 -6.5t1.5 -2.5t4.5 -2t4.5 -5.5t2 -12.5q0 -4 -6 -14.5t-9 -12.5q0 -84 -8 -100 q-1 -7 -1 -45t-7 -62l-2 -10q-6 1 -10 7t-6 13.5t-2.5 17.5t-0.5 17zM2304 459q1 19 32 23.5t48 -1.5q25 0 86 10.5t94 2.5q8 -3 21.5 -10t26.5 -11.5t28 -5.5q28 28 20 41q-14 6 -22.5 7t-18 -1t-16.5 -2q-39 13 -39 72q0 115 2 133q-1 2 -5 30t-5 31v4q3 7 4 9t3 5.5 t3 2.5t4 0q10 0 24 -8t15 -23q-7 -41 -12 -85.5t-5 -85t9 -46.5q5 -1 6 -4t1.5 -6t3.5 -6.5t14.5 -5.5t31.5 -3q5 -2 6.5 -2t20.5 -4q13 -2 13 -4q1 -2 1 -6q0 -2 -13.5 -27.5t-30 -49t-21.5 -19.5q-4 5 -4 10.5t-2 7.5t-11 4q-17 2 -33.5 14.5t-17.5 12.5q-14 8 -29 9.5 t-25.5 -1.5t-27 -8.5t-24.5 -7.5q-19 -6 -63 -10.5t-56 -10.5q-9 -7 -21.5 1.5t-15.5 23.5zM2361 565.5q-2 25.5 2 61.5t4 41q0 8 -2 12q11 3 21.5 -3t13.5 -5q4 1 30 20.5t42 18.5q10 -2 14 -17q0 -4 -37.5 -27t-46.5 -20q-4 -2 -12 2l-6 -80q8 4 65 0l10 -1q10 -1 18 -1 t9 2l4 95q0 3 4 4t9.5 1t7.5 1q4 1 10 -4.5t6 -8.5q0 -16 -5.5 -57t-10.5 -45q-1 0 -6 2q-18 6 -19 4q0 -4 -14 -6.5t-31 -6t-22 -9.5q-2 -4 -11.5 -2t-19.5 12q-7 11 -9 -4q-3 -13 -5 -13q-11 8 -13 33.5z" />
<glyph unicode="." horiz-adv-x="2596" d="M100 1024v8l15 17h12q68 0 164 -78l-115 22l-49 2zM131 1083l4 15l21 12h14q65 0 121 -121q-104 78 -150 78zM141 498l6 90l9 10q154 0 274 -117v31q0 98 37 188l-49 -6q-83 0 -121 66v24l20 127q0 75 -34 121v6q0 20 71 29h29v-248q3 -41 20 -41h21q67 0 88 66 q58 128 117 211q15 0 69 -66q-58 -80 -127 -211q30 40 107 37q120 -3 147 -115q48 224 138 457l53 -12q-78 -273 -133 -731q-101 0 -101 12l9 92q-55 -49 -107 -49h-35q-136 21 -127 174q-20 -79 -20 -174l8 -78q0 -17 -39 -37q-13 -3 -59 49q-130 95 -271 95zM487 313v13 q8 25 78 47l420 6q-29 176 -29 264v51q0 217 72 447l72 -11q-56 -189 -56 -278l203 197q56 -35 53 -54q-190 -119 -213 -192q103 -69 187 -185q76 -108 143 -86q69 21 72 93q12 121 -195 118l-18 5q-46 27 -55 90q15 90 84 90q109 0 143 -70l10 82h66l-49 -162 q-20 11 -45 15l-13 49l-31 32q-54 7 -77.5 -4.5t-18.5 -42.5q0 -29 205 -69q49 -34 49 -82q-24 -213 -141 -213q-135 6 -287 242l-29 10l-16 -2l-6 -13q0 -116 29 -321l491 -2q76 3 103 170l-17 20l12 41l-28 105v39l20 63l-8 10l-33 6l-26 -8l-72 -2q0 28 174 49l12 29 l21 12l29 11q115 183 333 180q221 -3 326 -228l29 -133q39 -26 30 -114q-9 -90 -92 -111l-104 -119q199 -6 211 -57q0 -63 -236 -78q-324 -6 -354 88q-157 121 -191 236l-6 -41h-18q-10 -99 -42 -147.5t-85 -45.5l-473 -10q-27 -38 -96 -35l-9 31q-172 0 -485 -39zM571 639 q12 -108 78 -111q93 -6 127 88q21 103 -63 144q-145 27 -142 -121zM971 1167l10 25l53 -14l-16 -23zM989 1202l21 47l53 -14l-27 -45zM1006 295q61 -6 96 29l10 -41q-24 -37 -98 -31zM1536 852q67 88 150 88l24 -25l-10 -26q-91 6 -164 -37zM1792 625q27 -106 111 -166 q83 -62 235 -47q156 12 244 204l-144 -18l-18 35l180 31q6 188 -94 272q-100 89 -231 86q-133 0 -240 -137q40 -27 31 -125q-6 -100 -74 -135zM1888 711l21 34l239 -106l-18 -31z" />
<glyph unicode="0" d="M100 772q0 376 379 623q118 77 363 104q525 0 743 -590l14 -168q0 -396 -407 -665q-155 -76 -410 -76q-276 0 -561 334q-121 210 -121 438zM129 741q0 -409 410 -635q131 -61 303 -61q506 0 682 576v182q0 435 -531 620l-121 19h-90q-444 0 -637 -547zM162 817 q0 32 166 62l45 -15v-16zM283 530l45 91l-17 75q65 62 121 62l47 -17v-14q-137 0 -137 -59q0 -36 123 -76v-17l-78 17h-29l-30 -31v-47q0 -33 75 -45v-31h-45q-54 34 -75 92zM735 864v15l76 16l303 -16l47 -45z" />
<glyph unicode="1" d="M100 750q0 492 525 723l227 26h14q566 0 736 -643v-106q0 -545 -601 -736l-165 -14q-306 0 -584 315q-108 126 -152 435zM160 811q0 -417 360 -645q128 -76 271 -76h120q323 0 555 361q76 146 76 286v43q0 443 -481 645l-270 31q-303 0 -539 -377zM324 991v17h16 q467 -209 467 -242h-31zM371 614h14q335 -225 676 -225h59l152 17v-17q-180 0 -180 -104l-31 -60q-255 15 -285 45l-16 -14h-15q-256 56 -256 119l48 121q-152 81 -166 118zM520 360q147 -75 225 -75q31 0 46 104l-226 76zM537 1456v29q129 135 254 135h30q90 -9 90 -43 l-45 -31q-90 9 -90 31q-82 0 -239 -121zM807 285l240 -29l30 74l-256 45v-15zM1106 707q0 46 407 73q0 -46 -407 -73zM1165 1516v30l47 15q238 -105 238 -283h-27q0 152 -258 238z" />
<glyph unicode="2" horiz-adv-x="1898" d="M100 332v30q0 124 195 195q82 311 332 481q235 107 391 107q240 0 452 -150h17l88 72l-53 4v29l100 -10l-2 -23l-92 -80l61 -8v-31l-76 15q256 -250 256 -588q0 -240 -118 -240q-209 -135 -602 -135q-343 0 -648 135l-77 -14h-58q-145 0 -166 211zM129 362l8 -61 q15 -167 187 -158l34 9q-62 15 -77 270v90h-29q-123 -62 -123 -150zM340 391l31 -198l30 -27l58 47q59 116 88 119v-15q-50 -109 -101 -153v-12q261 -105 572 -105h61q625 56 631 209l14 119v61q0 357 -374 574q-162 73 -254 73h-64q-485 0 -661 -526l30 -31q50 0 144 66 v-25q0 -31 -121 -55l6 -14q43 -76 92 -76v-16h-47l-121 106zM1018 512l14 14h17q38 -60 301 -225h-15q-127 0 -317 211zM1335 1303l135 45l9 -37l-52 -152l109 27l10 -41l-160 -39l-10 37l56 153l-89 -30zM1493 1364l20 43l244 100l-147 76l24 41l199 -102l-23 -43 l-233 -101l154 -75l-25 -43z" />
<glyph unicode="3" d="M100 741v17q0 513 562 712l180 29q500 0 731 -514q45 -131 45 -258v-90q-92 -95 -92 -272q-298 -365 -637 -365q-561 0 -760 530zM162 758q0 -474 483 -682l227 -31q401 0 637 365l9 90l-9 14l-73 -14h-199v30h14q257 -9 275 31q76 70 76 152q0 315 -332 608 q-192 121 -367 121h-121q-186 0 -424 -215q-196 -236 -196 -469zM449 348v17q0 210 137 210h59q454 -137 682 -137v-14h-106l-107 4l-242 45l-227 72h-76l-45 -45q0 -46 183 -135l14 -48l61 48q98 -30 402 -27v-12l-236 -9l-151 17l-76 -45h-14q-15 90 -168 90h-15v-76 q95 -121 183 -121h286l17 -10l286 70h19v-15q-139 -65 -426 -92h-47q-393 0 -393 213zM479 834v14h31q333 -222 575 -256l15 -17v-30h-62l-469 213zM1282 334v14q45 0 45 45l14 17v14h19v-45l-19 -107l19 -14l-19 -16l-22 2l-4 90h-33z" />
<glyph unicode="4" d="M100 713v45q0 597 697 741h75q439 0 682 -500l45 -258q0 -536 -620 -741h-168q-362 0 -604 365q-107 192 -107 348zM162 758q0 -468 483 -682l213 -31q540 0 696 606v137q0 430 -516 635l-149 19h-62q-441 0 -637 -518zM373 864l14 15v16l244 -64l31 -10l106 -33 q-67 -137 -168 -137h-45q-161 0 -182 213zM449 817q0 -89 120 -104q107 27 107 59v27l-53 12l-84 -39q-50 18 -74 76l-16 -14v-17zM811 289q47 121 182 121h76v-17l-121 -166h-45q-92 0 -92 62zM1221 530v76h16l180 -31l47 -14l45 -16q-46 -107 -137 -107h-59q-62 30 -92 92 zM1296 545q31 -60 93 -60l75 29v31l-30 6l-21 12l-29 -22h-16l-41 34h-31v-30z" />
<glyph unicode="5" d="M100 721v74q0 450 525 675l239 29q469 0 690 -538l31 -226q0 -413 -434 -659q-180 -61 -315 -76q-470 0 -707 524zM145 750q9 -181 45 -181l15 -14q287 -65 301 -90v-45h-31q0 59 -31 59h-45v-14q0 -163 152 -315h-16q-90 0 -181 315q0 38 -118 59l-17 -90 q239 -389 617 -389q474 0 673 524l19 136v90q0 437 -512 630l-135 17h-90l-226 -47v-15q93 -100 209 -166v46h17q0 -84 104 -136h14l17 17h14v-17l-14 -14v-14l135 -62v45h14q0 -90 119 -90l16 -14v-14h-30l-105 28v-28h-14q0 71 -180 135l-31 28v-254q0 -165 -45 -165 l-14 16v149l-17 299h-45l-14 -254h-31v60l-14 149l14 121q-133 95 -133 121h-31q-375 -234 -375 -616zM174 541l16 -45h15v41l-31 18v-14zM371 780v60q0 83 59 104h59q94 0 121 -104q-21 -150 -121 -150h-14v15q45 0 45 30q-149 0 -149 45zM399 854q0 -88 90 -88q76 9 76 45 v59l-59 56h-45l-62 -56v-16zM580 270q0 136 239 136h316l45 -46q0 -135 -316 -135l-180 -30q-92 30 -104 75zM625 285l45 -45h75q406 15 406 120l-16 15h-45v-15l-105 15h-225q-135 -30 -135 -76v-14zM1135 705q0 106 104 106q61 0 107 -76v-30q0 -91 -107 -91l16 -14v-14 h-30q-90 31 -90 119zM1165 690l45 -45h45l45 45v45l-45 45h-45l-45 -45v-45z" />
<glyph unicode="6" horiz-adv-x="1851" d="M106 106q-6 80 177 166l28 62h-47q0 -45 -26 -45l-33 30v31l123 60q-63 111 -90 333q0 499 542 727l244 29q465 0 696 -528l29 -242q0 -455 -500 -698l-241 -31h-29q-298 0 -547 246l-31 -92l17 -45h-62v14l17 76h-31l-123 -121h-14v45l47 59v17h-47q-51 0 -60 -109z M127 8l2 23h31l24 -21l-14 -20h-14zM145 258v14l29 33h16v-47h-45zM283 850l14 -180q83 83 287 118q107 107 168 107t227 -90h135l199 45l110 -51l25 6q127 -22 252 -90l6 73q0 374 -485 637l-273 37q-214 0 -530 -295q-135 -221 -135 -317zM328 578q46 -168 90 -168h14 l33 30h-19l19 47h12l17 -47q61 15 61 92l25 13l18 -13l-14 -18v-90q0 -45 137 -45v-14q-78 0 -78 -60h-14v29h-45q0 -62 -29 -62v62q-61 -21 -61 -45q226 -244 485 -244q437 0 666 412l45 135l4 59q-204 -104 -670 -104h-135l-305 14l-27 4l-229 74v-61zM584 682 q0 -41 151 -59h76q114 0 123 47v59q-65 121 -154 121h-14q-106 0 -182 -135v-33zM678 788l22 23l35 4l17 -10l-2 -43l-43 -2zM1145 729q53 -47 121 -47h120l62 16v17q-96 90 -168 90q-135 -30 -135 -76zM1286 754l8 20h31l27 -26l-11 -19l-47 2z" />
<glyph unicode="7" d="M100 696v107q0 389 424 620q137 76 348 76q484 0 699 -545l28 -213q0 -382 -348 -635q-153 -106 -499 -106q-178 0 -441 213q-211 242 -211 483zM162 758q0 -437 452 -668l244 -45q460 0 680 516l16 152v75q0 402 -454 607q-118 47 -228 47h-14q-492 0 -668 -533z M283 637q70 180 286 180q112 -27 183 -135v-45q0 -117 -183 -182q-137 46 -137 151v31q66 90 154 90h14q62 -30 62 -90h-17l-76 45q-90 -38 -90 -61v-29l76 -78q152 21 152 137q0 83 -152 121q-174 0 -227 -151q0 -56 151 -183v-14l-14 -14v-17q-182 95 -182 244zM811 227 v15q181 0 365 106h137q0 -36 -183 -45l-106 -76h-121l-16 6l-60 -20zM1130 817q70 199 242 199q152 -71 152 -168q0 -130 -166 -197q-107 46 -107 137q21 136 138 136q59 -27 59 -90h-14q-31 0 -31 45q-81 0 -121 -76v-15q43 -75 90 -75q107 52 107 135q-59 123 -152 123 q-104 -46 -151 -123v-45q0 -68 120 -182l-28 -29q-138 94 -138 225z" />
<glyph unicode="8" horiz-adv-x="2060" d="M113 684q-15 218 100 277q27 121 145 106q102 261 306 379q204 117 368 102q462 0 707 -481q107 3 131 -104q89 -35 86 -281q-30 -227 -256 -262q-6 -34 -123 -193q72 -21 72 -88q0 -188 -336 -188h-281q-353 0 -600 162q-162 198 -162 321q-142 43 -157 250zM358 332 q92 -350 707 -350h231q163 0 243 46t79 138l-41 33h-29q-242 -205 -516 -205q-203 0 -495 190l-56 6l-30 15l-23 24l-4 15q0 28 35 37l2 8l-86 114h-17v-71zM389 625q0 -306 379 -512l264 -60q459 0 647 484l11 186q-50 639 -672 666q-525 0 -617 -529l-12 -133v-102z M461 244l8 -19l16 -10l35 -2l-43 45l-12 -4zM477 594v35l395 -119v-23zM1182 487v21l395 100v-28z" />
<glyph unicode="9" horiz-adv-x="1748" d="M100 707v104q0 264 254 524q12 81 107 152h14q0 -62 31 -62q165 74 330 74q446 0 673 -420l45 -116h17l59 45v-93q-50 -117 -59 -346q-46 -186 -191 -387q-142 -191 -516 -182q-482 0 -719 479q-45 116 -45 228zM174 735q35 -403 293 -553q254 -148 514 -121 q258 27 258 74q-520 6 -719 205l-59 49h16l58 -45q244 -176 630 -176q212 0 344 344q45 89 45 211q0 462 -464 674l-226 28q-209 0 -313 -90v-12q59 0 59 -61q-71 -164 -211 -164q-59 0 -59 57q-166 -175 -166 -420zM309 633v26h17l24 -26h-41zM371 600v45h45v-12l-31 -33 h-14zM444 1245l17 -76q78 0 90 45l-2 43q-55 -3 -82 99l-23 -78v-33zM520 825v45q403 -194 479 -282h-28zM1315 543q0 45 194 45v-33l-104 -12h-90zM1585 870h14l17 45v17h-17l-14 -45v-17z" />
<glyph unicode=";" horiz-adv-x="1845" d="M100 166v29q0 172 164 360l-28 211q0 457 495 688q119 45 225 45h45q306 0 558 -237l92 14h12l-43 -105q121 -201 121 -374v-76q0 -447 -529 -690q0 -92 -301 -107q-227 30 -227 152l-72 28l-227 -135h-76q-53 62 -119 62zM115 209q50 -132 194 -209h45q110 15 242 150 v16q0 110 -45 119l-16 -15v15l16 14v14l-107 93l-102 -76v14l57 76l-102 31q-80 0 -182 -242zM190 420h15l92 76l225 -107v62l-151 45v12l14 2q166 -27 166 -104l-16 -17v-14q0 -44 210 -285q0 -77 181 -104q204 0 286 149q484 194 484 643v19q-30 336 -152 374 q-100 -43 -121 -92q136 -71 136 -164v-14l-15 -90v-14h15l16 73h14v-47l-14 -57h-76l-301 -14q-34 26 -61 178q27 0 196 196l180 119q-101 150 -450 225h-76q-174 0 -287 -88q94 -50 347 -421l16 14h29l-74 -60l-17 15h-14q0 -164 -106 -164l-359 31l13 14v12q0 47 -46 47 q0 316 273 316v14q-49 0 -92 76l-74 45q-270 -191 -270 -524v-76q0 -98 45 -211h-17l-57 14h-16q-30 0 -91 -104zM309 285v14l33 31v-17zM444 195l54 51v-6l-39 -45h-15zM477 901v105h12v-105h-12zM535 930q0 -119 122 -119l254 -14l62 133q-144 225 -228 225h-28 q-155 0 -182 -211v-14zM807 104v46l31 108l12 6q3 -84 92 -84h105q85 0 94 68l10 4v-72q-24 -135 -150 -135h-90q-80 0 -104 59zM836 121l45 -45h106q135 27 135 74h-149l-121 30l-16 -14v-45zM836 721v12h59v-12h-59zM852 270v15q90 349 195 391h61l43 -45v-377h-14 q-77 45 -256 45zM987 586h105l30 30l-30 29l-105 -45v-14zM1184 885q0 -110 73 -119q273 27 273 57v47q0 164 -137 164h-15q-100 0 -194 -149zM1229 707v14l149 12h31v-12l-121 -14h-59z" />
<glyph unicode="A" horiz-adv-x="2095" d="M100 1440v14h45q76 0 166 -90h-30q-42 31 -150 31zM131 39v47q0 31 57 31l17 254v239l-74 95q0 41 113 114l-99 10l37 76l105 -26l10 49q34 149 57 149l-28 62l28 182v74l-28 45v30l75 13h29v-254l272 211l29 14l287 43h74l16 92l59 -14l-28 -88l41 -8q20 80 40 80h1 l67 -5l-31 -100l150 -45q33 45 52 45q4 0 7 -2l47 -57l-34 -17l-19 -24l234 -97q4 42 13.5 62.5t21.5 15.5l36 -6l4 -8l-61 -182l-37 26l-4 74l-145 37l92 -72q58 -82 145 -123l31 -20l10 -57l-61 -451h30v-16q0 -31 -45 -31l-12 -43h47l35 39l47 -21l12 -20q20 -58 50 -58 q7 0 14 3l18 -29l-18 -12l-25 12l-16 -12q3 -32 -61 -84l-76 16h-76q-52 0 -195 -152q-235 -149 -481 -149l-285 74q0 -72 -104 -115l-272 -4q-195 27 -195 88zM145 1483v47h29q96 0 137 -121h-14q-56 53 -152 74zM174 719q0 -53 197 -62h118q168 0 183 45q-94 169 -207 175 q-3 -26 -49 -23l-45 29l-129 -88l-31 -33zM219 37l78 -27l14 15v579l-75 23l14 -47v-375zM371 987l30 -20l64 2l10 18h-104zM401 1012h74l31 -25l-31 -92q116 0 242 -193q-27 -61 -76 -61l-16 -195q-2 -35 -2 -65q0 -242 125 -264l194 -62h45q443 0 686 402l4 35l-57 -46 l-45 15v59l59 33h17l-17 -16l-6 -19l23 2q73 0 73 199v57q0 377 -405 602q-183 62 -287 62q-431 0 -631 -428zM506 12l14 -16l49 16l9 60l-9 542l-49 -4v-420zM897 793l16 45l310 -207l-11 26l-28 50q39 -3 135 -125l-31 -29h-31q-57 0 -204 106l-49 -18q-65 3 -68 117z M1118 1604l6 18l60 -4l-8 -29zM1137 1634l28 41l54 -14l-25 -33zM1651 326h118l-10 30v45l6 31h-71zM1690 1063l45 -105l10 -67l16 113q-21 59 -53 59h-18zM1786 385l10 -55l19 -19l45 72l-33 63l-21 23l-12 -10zM1800 1204l152 39h43l30 -31l-30 -28l-119 18zM1815 1243 q50 90 163 90l17 -12l-6 -41l-154 -29z" />
<glyph unicode="B" d="M100 713v45q0 503 545 712l227 29q439 0 682 -500l45 -258q0 -438 -469 -696l-196 -45h-137q-348 0 -590 365q-107 192 -107 348zM176 696q0 -408 486 -620l135 -15h92q441 0 635 484l30 213v14q0 246 -182 410q-24 113 -303 227q-121 33 -242 33q-402 0 -620 -471 l-31 -213v-62zM236 696l30 168l819 -92l408 -59v-107l-8 -49q-53 -133 -90 -141l35 141l4 49q-38 121 -166 121l-244 33l-379 41l-258 20q-76 -15 -76 -108q0 -52 17 -152l14 -76zM252 924v14q77 170 317 170q138 -34 138 -137h-31q-104 90 -166 90h-31q-108 0 -227 -137z M1069 924v47l168 59q272 -67 272 -227h-30q-65 182 -197 182q-89 0 -168 -61h-45z" />
<glyph unicode="C" d="M100 705v106q0 464 570 676l166 12q512 0 718 -538l31 -181v-30q0 -504 -541 -719l-239 -31q-343 0 -615 389q-90 172 -90 316zM145 750q0 -451 480 -660l225 -31q441 0 659 496l19 150v90q0 448 -529 630l-118 17h-76q-445 0 -645 -543zM205 735q0 30 90 45h14v-14 l-22 -12q171 -417 540 -432q398 21 547 354l33 90h-16q-45 0 -45 29l16 16q119 -15 119 -45q-50 0 -70 -57q-172 -424 -592 -424q-379 0 -538 430l-25 30zM489 961l17 90h14v-76l45 45v31l-30 45v14h45q59 -21 59 -135v-60l-16 -75l-21 26l-18 -4l-4 -26l4 -39 q-95 27 -95 164zM1030 961v59l14 -14h17q59 15 59 90h-45l31 28q74 -35 74 -149v-14l-17 -103l-6 4l-8 19l-14 4l-7 -8l7 -37l6 -19l-6 -10h-45q-42 0 -60 150z" />
<glyph unicode="D" d="M100 727v61q0 404 424 635q149 76 348 76q458 0 701 -528l29 -230l-17 -137l33 -43v-53l-76 -29q-212 -479 -731 -479q-429 0 -666 469q-45 131 -45 258zM162 758q0 -482 514 -697l151 -16q453 0 666 410l14 32q-102 27 -102 119l35 43l47 6l63 -28l6 161q0 436 -518 635 l-149 19h-62q-441 0 -637 -518zM252 803v31q0 45 197 75h30q156 0 211 -61q0 -86 -287 -107h-45q-82 0 -106 62zM510 938v16q0 55 166 76h31q121 0 272 -151h14v-15h-45q-135 135 -258 135l-135 -61h-45zM614 741h121v-14l-14 -14v-17q115 -151 258 -151h31v-27l-31 -4 q-169 0 -289 199q-76 0 -76 28zM1315 758v30h45l90 15l76 -31v-59q-74 59 -137 59z" />
<glyph unicode="E" d="M100 612v166q0 518 584 703l178 14q478 0 690 -539l29 -208q0 -401 -375 -644q-192 -104 -313 -104q-603 0 -793 612zM129 629q200 -570 690 -570q492 0 674 539l14 121v74q0 423 -512 628l-147 15h-60q-434 0 -628 -508l-31 -254v-45zM250 1018q41 121 76 121h71 q62 -35 62 -76l135 76q104 -27 104 -138q0 -119 -223 -223q-225 108 -225 240zM279 657l61 76l104 -14l74 14l17 -14v-17l-17 -45l17 17h28v-17q-21 -59 -45 -59l-14 45q-45 -45 -107 -45l-6 -12q-112 24 -112 71zM295 1047q0 -81 59 -105q0 49 62 135l-76 15zM354 1393v14 q82 119 209 119h45q0 -28 -178 -68l-61 -65h-15zM504 973l90 90l-14 14h-31l-45 -45v-59zM938 973q15 133 119 133h30q60 -28 60 -74q112 74 151 74q91 -28 91 -119v-14q0 -120 -226 -225q-146 59 -211 180zM983 973l59 -76h15l-15 16v43l62 76l-31 31h-45l-45 -45v-45z M1087 1495v31h60q180 -52 180 -105v-28q-111 102 -180 102h-60zM1116 283q53 47 105 47l16 -62l-59 -43q-46 9 -62 58zM1192 973l29 -31q15 59 61 59v46h-45l-45 -46v-28z" />
<glyph unicode="F" horiz-adv-x="1898" d="M100 766q0 457 496 688q86 45 240 45h59q139 0 330 -90q40 61 75 61v17q133 -59 195 -121h33q43 43 147 43v16q62 -15 62 -59l12 14h18l15 -75v-45h-45l45 -60l-33 -31h-57l-17 76l47 45l-16 45l-133 -45l45 -223v-47q0 -31 -45 -31l29 -194v-90q0 -459 -558 -674 l-239 -31q-228 30 -434 180q-271 262 -271 586zM190 735q0 -437 465 -631q76 -28 195 -28h45q402 0 614 434l47 285q-24 166 -47 166l-147 -62q-131 41 -242 152l-59 90v119l104 106q-98 76 -391 76q-202 0 -465 -287q-119 -219 -119 -315v-105zM340 631v59q0 78 90 150 l-14 75v15h28l17 14l14 -14l330 -406l14 -45h-14l-45 31h-15q-107 -76 -165 -76h-15q-225 44 -225 197zM371 690q0 -160 164 -225q194 35 194 76q0 58 -106 61l-2 60q-29 72 -160 178zM940 465v45l543 121l12 -17v-14q-121 -35 -121 -90q0 -95 -119 -180h-104 q-83 0 -166 135h-45zM1030 465q65 -121 135 -121q181 0 181 197l-17 14h-12l-123 -31h-43q0 -59 -31 -59h-12l-47 31zM1284 1245q47 -121 123 -121l-14 17v14h14q125 -104 178 -104l17 16l-17 133h-12q0 -59 -45 -59q-66 0 -154 137v57q0 31 45 31l45 -16q-71 92 -147 92 h-17l-16 -47q29 -120 90 -209v-17q-33 0 -74 109h-16v-33z" />
<glyph unicode="G" horiz-adv-x="1800" d="M109 805v518h59v-518h-59zM199 745v15l59 336v317h64v-272l38 90l52 55v264h61v-219l31 23q204 151 471 151q367 0 622 -381q109 -201 109 -364q0 -286 -213 -531q-186 -229 -625 -229q-191 0 -485 244q-184 254 -184 501zM258 774q0 -486 490 -698l241 -33 q241 0 488 229q196 239 196 443l-28 30q-316 0 -351 -65l-45 35h-182v-17q73 -258 319 -258v-14h-47q-259 0 -305 334l625 14v92q-15 176 -244 426q-220 152 -426 152h-59q-264 0 -457 -211v-440h-61v378h-11l-79 -182v-184h-56zM274 731v43l549 -43v-16q0 -218 -229 -303 h-33v14q230 79 230 244v28l-183 17h-76v-35h-28q-57 51 -215 51h-15zM823 72v34q0 35 135 62q170 -21 170 -62v-16l-198 45q-62 -12 -62 -63h-45z" />
<glyph unicode="H" horiz-adv-x="1943" d="M100 682v14q91 3 119 25l2 67q0 410 424 635q137 76 348 76q484 0 699 -545l28 -213v-26l92 -19v-14l-92 4q0 -126 -104 -321v-17l121 -106v-15l-138 90q-237 -317 -696 -317q-376 0 -637 455l-137 -90v14l123 106l-31 197h-121zM258 719l129 -23v-14h-121l31 -182 l135 45v-31q-121 -15 -121 -45q234 -424 637 -424q343 0 574 311q-389 118 -392 144h31q85 0 377 -121q107 155 107 317h-152l-332 -28q9 52 424 73l60 -14v121q0 223 -318 485q-193 109 -370 109h-9q-494 0 -682 -563zM358 954v17h29q105 0 244 -154l-17 -14h-14 q-41 74 -242 151zM510 514v47l29 31q0 -92 61 -107l90 15q0 -41 121 -62h31q89 0 151 92l-14 76h31l14 -76q0 -110 -197 -137h-16q-84 0 -149 62l-62 -17q-61 20 -90 76zM918 758q0 171 364 241l14 -14v-14q-348 -105 -348 -213h-30z" />
<glyph unicode="I" horiz-adv-x="2095" d="M100 766q0 435 480 688q148 45 270 45q463 0 690 -432l59 -168l166 90h15l30 -104l-194 -90q-3 -90 145 -90h19l200 40l11 -4l28 -217q-15 -59 -90 -59h-74q-119 3 -270 104h-14q-30 0 -45 -194q-285 -375 -752 -375q-228 21 -510 285q-164 259 -164 481zM340 1110 l180 104q30 64 76 64v45q-109 0 -256 -199v-14zM371 811q99 -360 538 -360l62 -17l254 17q85 0 256 -76l28 149l-14 17l31 28h-31q-45 0 -45 -45l-76 17h-14l-14 -17l-152 45l16 45h15q0 -59 30 -59h60q261 21 270 121l-14 45l-152 -62h-104q-182 0 -750 316l-59 14 q-135 0 -135 -178zM639 750v16h31l436 -166l29 31q0 -62 30 -62h29l-29 -28l-75 45l-181 -17h-45q-125 0 -194 90h14q101 -73 256 -73h59v28l-90 -14q-59 0 -59 76zM1346 524l73 -14l76 14l-45 -45q-104 21 -104 45z" />
<glyph unicode="J" horiz-adv-x="1748" d="M100 1159q0 31 45 31v16l-24 4l-6 11h30l121 -31q142 197 293 244v16q-35 59 -92 59v17h29l108 -62h14v31l17 -16l274 30q222 0 396 -137l184 33l-14 -47h-109v-15q201 -204 213 -305l78 15v-29h-60q45 -151 45 -276q0 -553 -595 -734l-138 -14h-78q-484 0 -686 580 l-16 122v76q0 178 109 398l-19 -9l-59 -53zM131 1165l29 -20l20 14l21 23l-33 6zM174 764q0 -444 461 -672l242 -47q482 0 688 535l14 137v47q0 495 -547 670l-137 16h-18q-488 0 -670 -535zM344 868v64q0 182 137 182q209 0 230 -153q0 -152 -41 -173l10 -40v-15h-14v31 q-92 -109 -140 -109l17 17v30h-47v15l63 16v15h-16l-47 -15q-152 15 -152 135zM375 885q24 -121 137 -121h14q127 0 154 135v16q-21 154 -137 154q-168 -9 -168 -184zM680 260q15 62 90 62h277l45 -48v-59h-15l-153 45l-230 -45zM1077 932v14q21 152 213 152h15 q132 0 153 -213q-30 -168 -168 -168l-47 16h-12v-16l59 -15l45 -4l-10 -8l-35 -2q-47 0 -47 -33l78 -30v-15h-31q-65 26 -168 138l-14 -15v15l14 16v14q-45 0 -45 154zM1108 899q15 -151 152 -151q153 15 153 137q0 168 -153 168q-152 -21 -152 -154z" />
<glyph unicode="K" horiz-adv-x="1748" d="M100 748q0 341 383 694h31l16 -19q162 76 308 76h45q281 0 491 -180h31l47 14v-14l31 -47l-31 -47q184 -172 184 -477v-46q0 -129 -108 -399q0 -184 -213 -184q-149 -137 -539 -137q0 -31 -201 -31q-45 92 -290 291q-185 253 -185 506zM176 748q0 -374 354 -629 q27 -121 123 -121q112 44 445 59q236 126 354 140q43 34 43 198q94 91 94 416q0 200 -184 399l14 -75v-109l-28 -33v17l-123 -45q-33 0 -109 61l-14 -16v92h-33v14q152 62 231 170q-225 156 -430 156h-61l-199 -33v-33q155 -55 199 -123h-14q-123 70 -277 95h-16 q-369 -237 -369 -600zM455 639q0 108 75 201l-16 16l16 14h15l323 -59l461 45l62 -76l-17 -170l17 -262q-29 0 -29 47h-19l-61 -30v-31l61 -17v-14h-106q-267 0 -537 -123q0 45 -61 45v31h-47v-76l137 -61q405 137 553 137h61l48 33v-17l-48 -47h-75q-90 0 -492 -121h-94 q-162 0 -227 535zM483 1116q60 141 109 156h90q118 0 201 -156v-14l-15 14h-16l-14 -76l30 -30h-30l-185 16l-139 -16zM514 702q0 -47 168 -47l33 78q-9 78 -94 78h-15q-92 -9 -92 -47v-62zM530 1116l15 -76h155l15 15l14 -15h92l17 76q-52 137 -199 137q-109 -35 -109 -137 zM715 672l14 -17h16l277 31v47l-61 62h-93q-153 0 -153 -123zM807 272h14q309 52 309 76v17h-122q-140 27 -140 75v17q75 -61 199 -76q173 0 262 123v45l-14 14v17l-109 -17h-16l-168 33l-78 -33v-14l78 -17v-12h-78l-16 12q-121 0 -121 -215v-45zM1036 702l17 -16h45 l108 16q0 84 -76 93q-67 0 -94 -93zM1176 1087q18 -64 77 -94h15q89 0 123 94q-21 107 -62 107q-153 -74 -153 -107zM1221 748q0 -29 47 -29q94 0 94 76l-66 32l-75 -32v-47z" />
<glyph unicode="L" horiz-adv-x="1845" d="M100 1042v62q30 62 123 62q19 0 41 -3q-82 -18 -88 -192zM129 1090l4 -58l21 -2q6 87 61 121q-74 -21 -86 -61zM162 930l43 -35q0 147 221 461l152 76l2 -19l12 2q153 78 297 78h104l70 -16q88 101 213 104h31l71 -14l-4 -6q-181 -21 -203 -113h15q48 0 313 164l119 12 h31l-9 -8q-186 -70 -186 -184v-17h62q43 0 43 92q42 60 102 60h59l-6 -8q-65 -6 -65 -111l12 -76q0 -95 -191 -104q6 -25 28 -25q12 0 30 8h45v-12l-14 -88l28 -78h17q44 0 82 207l47 33l4 -17l-33 -67l33 -187q-14 -56 -88 -133q-3 -25 -3 -45q0 -30 7 -48q11 -30 41 -25 q-52 -340 -209 -537q-217 -254 -641 -254q-240 0 -551 344q-131 271 -131 572v14zM193 856q52 -112 100 -348q230 -432 596 -432h88q379 0 596 432q73 150 90 250l-39 -41l-6 12l-14 225q90 50 90 150v76q-18 -141 -76 -150h-31q-87 75 -84 131l39 49l2 13l-16 -9l-29 -6 q-78 0 -90 43q3 23 195 76l28 59l-14 91v16l31 43h-11q-52 -33 -52 -115q0 -9 1 -18l-71 -17h-17l-74 17v74q71 105 113 114l6 4h-16q-214 -137 -342 -180l-43 17v30q57 90 129 99l4 6h-14q-60 0 -209 -119q-268 0 -478 -121v16l31 43q-97 -51 -117 -110l-16 -8v6 q0 45 41 98q-106 0 -176 -313l-59 -133l-31 12h-15l31 -43v-74l-71 51v-16zM309 537v16h29l209 -16l-135 133h14l209 -133v-29l-21 -2l-8 -12zM872 508v45l373 149h17v-16l-285 -133v-16h418v-15l-477 -28z" />
<glyph unicode="M" d="M100 750q0 492 525 720l194 29h45q505 0 707 -524l28 -180v-74q0 -479 -555 -690l-225 -31q-388 0 -659 465zM190 766q0 -459 465 -662l136 -28h118q411 0 617 434l14 45l-149 14v31l180 45v90h-45l-152 60v30h17q92 -59 163 -59h17v14q0 411 -465 629l-180 33l-238 -47 l-4 -13q332 -197 332 -258v-28q-122 -152 -211 -152h-45l-60 62v14h29q0 -59 76 -59q103 50 180 149v14q-61 86 -317 238l-29 4l-104 -88h-15l88 102l-2 15l-31 20q-91 -6 -204 -155q43 0 225 -150l84 -70l-12 2l-88 68l-105 59h-14q-100 -248 -232 -248q-9 0 -18 1z M205 961h76q50 8 145 213q-9 50 -72 71q-149 -204 -149 -270v-14zM606 1442q3 -33 45 -33l264 55l-34 6h-107zM700 569v17l136 14l299 -45v-14q0 -41 -209 -76h-31v14l90 17v14q-45 0 -104 59h-181zM745 676q237 0 449 194v-16q-176 -209 -389 -209h-31zM1016 510h14l31 31 h-17zM1225 854l45 45v16h14v-45l-14 -16h-45zM1239 225v31l35 25l26 -25l-30 -31h-31zM1413 590l8 -12l21 -3l-8 23zM1526 569q28 0 28 45v17h-14z" />
<glyph unicode="N" horiz-adv-x="1748" d="M100 1473l39 40l56 -63q13 -7 13 -24q0 -34 -52 -107l-45 31l55 69zM111 766q0 437 479 686q146 45 255 45h13h16q569 0 736 -643v-133q0 -475 -541 -690l-223 -31q-419 0 -662 451q-46 63 -73 315zM166 1554l35 31l59 -67l72 45l30 -27q-63 -67 -109 -67q-14 0 -26 6z M184 643q0 -176 168 -344h13q67 315 374 315h45q344 0 451 -73q119 -131 119 -271q194 182 194 480v16q-27 283 -88 283q-77 -344 -286 -344q-101 0 -254 135l493 254h17v14q-196 313 -601 313q-293 0 -524 -299v-14q430 -207 508 -285l-29 -28v14q-168 -104 -270 -104 q-268 56 -268 223l6 92l-6 14q-62 -139 -62 -284v-107zM246 1288q-7 35 -7 62q0 42 16 66q23 36 82 37q7 0 15 -1h29l-12 -43q-21 5 -37 5q-31 0 -42 -18q-7 -11 -7 -28q0 -26 16 -68zM260 1065q0 -233 166 -315l14 -13l31 -4q120 0 254 76v14q-359 242 -434 242h-31z M365 270q234 -225 464 -225q450 43 494 225l-43 29l-225 -29h-181l-374 29l-90 -14v45h-15zM426 360l14 -47l45 17l316 -31h28l76 14h88l107 -24q52 27 180 41v59q0 176 -299 197h-92q-404 0 -404 -107q-41 0 -59 -119zM993 823q63 -90 152 -90h45q209 62 209 256v31h-15 l-391 -180v-17zM1489 1260q87 -9 90 -46v-61l-31 2q5 34 -9 49.5t-48 14.5zM1503 1280l8 37q30 -30 51 -30q27 0 37 52l25 -20l-45 -64zM1599 1257l60 31l8 -16l-41 -39l33 -47l-21 -15q-44 35 -44 66q0 10 5 20z" />
<glyph unicode="O" horiz-adv-x="1748" d="M100 1026v31q0 94 197 258l14 39q-137 21 -137 53v12q27 -30 213 -45l43 -59q201 180 457 180h43q511 0 710 -528l31 -211v-45q0 -449 -497 -680l-334 -45q-132 0 -514 239q-197 38 -197 168l45 211l-14 152l14 121q-37 0 -74 149zM184 1462q35 99 154 123l4 14l31 -28 q0 -35 -66 -41q-64 -3 -123 -68zM250 680q0 -88 176 -211l4 14l154 -14q21 61 47 61h12v-16l-12 -14v-17l119 -45v31h16q67 -76 104 -76l45 17q0 -35 107 -78q9 -60 45 -60h29q-170 271 -437 271v16h107q139 0 408 -303l43 -14l108 30q0 -38 -108 -47l-107 17 q-187 -45 -330 -45h-75l-15 16l-166 -16q144 -138 346 -138l60 -12l51 12v47h10v-47h35v47h10v-47h31l33 11v53h10v-47h35v35l10 2v-29l21 4l69 37l-2 16l4 9l15 -19l18 4q317 246 317 424h-16l-61 14l-74 -43l-62 29v-16l62 -60h-16q-76 40 -76 107h-43q-82 -76 -185 -76 h-73l-76 16v13h45l74 -13q151 44 151 74l-104 31l-33 -31q-119 18 -119 107l-180 75v43h12q447 -194 547 -194l14 14q0 -45 197 -45h16l29 31v151q0 332 -346 557q-108 69 -289 93h-61q-488 0 -664 -531l-16 -135v-90zM332 344l2 -57l31 -35l63 -10q37 6 49 61 q-38 86 -61 86h-56zM469 434l45 -72l12 -47l-34 -90q24 -1 47 -1q197 0 241 95q0 117 -241 117q-33 0 -70 -2zM750 213h30l242 29v14l-107 16l-61 -30l-59 14zM766 801v45l14 14h15v-14l-15 -45h-14z" />
<glyph unicode="P" d="M100 750q0 489 525 720l225 29h14q572 0 735 -659v-90q0 -525 -569 -719l-194 -31q-182 0 -465 180q-271 280 -271 570zM190 705q0 -375 435 -601l194 -28h90q437 0 631 510l14 73v107q0 425 -479 643l-211 33q-465 0 -659 -527l-15 -149v-61zM219 735v15l451 61v-16 q-82 -240 -271 -240h-104v14q112 0 225 45v17l-76 -17h-149v17q330 0 330 164q-144 -24 -209 -74zM416 360v46q148 0 254 -136h-15q-126 105 -194 105zM639 569l16 17h60l45 -31l-31 -104l16 -76l-45 -45v-15l-45 15v135l15 76zM684 256h16l136 -61q285 135 358 135 q121 24 121 59v31l-15 76h46q0 -181 -136 -181q-71 0 -329 -135h-31q-166 21 -166 76zM909 555q24 59 45 59h17l45 -45l-45 -45zM1016 854h14l434 -59v-15h-28l-90 15l-91 -29q-77 59 -149 59h-31v-30q71 -105 164 -105v-14h-74v-17l105 -28v-17h-45q-209 80 -209 240z" />
<glyph unicode="Q" d="M100 745l60 299l-31 134q0 145 211 194h12l62 -14q207 133 432 133q273 0 563 -223q197 -83 197 -224q0 -773 -359 -911q-177 -133 -446 -133q-311 0 -582 358q-79 105 -119 387zM129 760q0 -438 446 -656l240 -45q490 0 672 539l14 119v43q-109 -65 -209 -74 q-255 0 -282 313v15q51 160 86 168l4 10l133 106q-185 119 -359 134h-59q-231 0 -342 -105q102 -83 102 -194l-14 -74l-14 -15q-55 -118 -178 -118l-121 28l-60 45q-30 -41 -59 -239zM160 1118l86 -141l16 -6l133 -17q73 0 150 105l2 59l14 15q0 138 -192 208 q-175 0 -209 -223zM233 1446v31l74 73h15q82 0 106 -59v-31h-14l-74 45zM340 1133v16l29 29h14l45 -29l-14 -45h-45zM532 373l21 63l-21 27h29q60 -22 60 -105l-15 -16h-45zM1024 999q56 -282 268 -282q285 53 285 282v29q0 194 -285 240q-93 0 -192 -105q-76 -104 -76 -164 zM1188 999v15l26 37l27 4l37 -41v-15l-31 -28h-28zM1427 1403v14h46l147 -192l-14 -19h-29q-150 114 -150 197z" />
<glyph unicode="R" d="M100 696v107q0 478 576 684l166 12h30q273 0 545 -242h82l-12 -8l-53 -8v-14l120 -119l-30 -33q75 -138 75 -317v-17q0 -277 -182 -483q-221 -258 -499 -258h-107q-357 0 -604 348q-107 192 -107 348zM162 758q0 -434 452 -668l154 -29h135q410 0 621 469l30 211v31 q0 325 -196 365q-137 40 -137 75q0 29 120 29q-207 201 -483 201q-480 0 -668 -533zM449 1030v31q0 39 380 141l-18 10l-141 19l-8 10h303v-59l-500 -166zM948 788q188 305 228 320q33 0 106 -229h-20q-28 18 -86 165l-21 -6q-136 -244 -199 -278zM1327 1227q0 -33 76 -45 l-47 49z" />
<glyph unicode="S" d="M100 696v107q0 478 576 684l166 12q591 0 757 -665v-93q0 -530 -575 -727l-90 -14h-152q-345 0 -592 379q-90 169 -90 317zM162 758q0 -443 452 -668l244 -45q460 0 680 516l16 152v45l-120 -45l-76 28v17q8 15 26 41l13 18q3 11 12 19l21 30q8 19 18 29l-29 -109l19 15 l116 33q0 295 -393 544l-243 64h-60q-492 0 -668 -533zM600 727v45l31 31l420 -21l-41 62q132 -53 135 -86v-17l-31 -28h-303q-53 -62 -104 -62zM979 121v14l59 47h31v-14q-6 -35 -76 -62z" />
<glyph unicode="T" d="M100 66v30l29 27h59l25 -23l-10 -28l-29 -21zM158 756q0 462 485 690l295 57l43 72l6 -8l8 -49l-14 -15v-16l145 -29l119 45l-4 -14l-43 -59v-15q428 -200 428 -659q0 -407 -352 -617v-16q338 -27 338 -88v-29q-55 -28 -426 -43l-412 -88q-262 0 -262 117 q-194 65 -236 119v12l175 45q-293 290 -293 588zM229 651q0 -171 150 -321l-14 57l-17 221q0 262 119 262l324 45q-56 -53 -97 -233l-22 -74l10 -336l6 -47l33 -102q13 -44 86 -44q13 0 27 1h131q119 0 125 92l36 234l-28 217l-29 102l-74 176l367 -12l74 -19l-45 -41 l45 -206q0 -231 -105 -381h15q221 229 221 469v45q0 402 -396 602h-16v-31h31l-4 -10l-99 -21l-73 17l-15 -17v31h-30l-60 -14l-57 14l-88 -14l14 14v12l-14 19l14 12l-14 14h-31q-500 -172 -500 -616v-117zM373 580l6 -91l2 -77l12 -25q0 -171 250 -307h74l-45 145l-29 221 l14 177l29 102l43 131l-170 -2l-135 -29l-33 -84zM1053 844l57 -193l31 -235l-31 -262l-12 -43l-29 -45q0 -31 41 -31q202 96 281 397l16 119l-45 278l-309 27v-12z" />
<glyph unicode="U" d="M100 766q21 238 164 467q120 -27 123 -215l12 2q74 182 226 217l-29 8q-60 23 -76 60l-14 90l-14 -2q-91 -158 -209 -158h-4q228 264 571 264h14q491 0 690 -493q45 -89 45 -240v-16q0 -520 -555 -719l-180 -31q-526 0 -735 569zM174 659q0 -288 406 -538l239 -62 q438 0 662 420q59 95 59 316q0 189 -166 391h-28q-46 -91 -46 -225v-31h-16q-20 0 -90 166q-106 118 -178 118v19l121 76l6 14l18 45q-82 39 -297 74h-59q-134 -19 -201 -51t-65 -76l28 -35l21 -14l37 -6l30 -15v-31q-157 0 -280 -313l-21 -2l17 107q-15 163 -62 163 q-135 -175 -135 -403v-107zM684 766h315q-73 -525 -147 -528h-33q-30 3 -98 182l2 31zM745 451q47 -195 91 -195l28 29q62 103 62 180l-45 31h-45q-91 -9 -91 -45zM1071 1227q125 -12 201 -252h12q0 239 90 248v22q-74 0 -184 131l-10 4l-29 -90l-45 -33z" />
<glyph unicode="V" d="M100 748q0 498 533 733l229 26h17q278 0 473 -180l14 14h31q0 -36 151 -243l45 -152h-14q-106 -26 -106 -61v-76q18 -104 47 -107l73 15l33 -45q0 -314 -397 -594q-191 -78 -426 -78q-319 0 -584 352q-79 118 -119 396zM174 764q0 -446 459 -672l246 -47q501 0 686 551 l14 76h-14q-58 0 -336 -260v30l260 230l-47 121v120q-412 -150 -412 -364v-107q30 -153 60 -153l77 76h15q-3 -34 -92 -105q-91 35 -91 244v45q0 248 490 412h59q-18 131 -182 288l-14 -45h-31v45l14 47h-14q-201 154 -414 154h-28q-484 0 -672 -520zM207 1204v17l59 168 v106l45 12l17 -12v-14q0 -86 -90 -277h-31zM451 809v45l501 107h19v-60l-506 -108zM1212 1554v45h17l151 -180l62 -61h-15q-145 71 -215 196z" />
<glyph unicode="W" d="M100 758q0 403 365 620v17l-47 -6l-121 -68h-14v57l559 121q452 0 682 -438q75 -153 75 -320q0 -485 -530 -710l-227 -31h-15q-509 0 -712 575zM162 758q0 -480 500 -682l196 -31q505 0 696 576v167q0 242 -106 242l-334 -59q-83 0 -104 90h45q0 -45 75 -45h15l334 59 q-229 367 -576 367h-76q-213 -15 -213 -64q110 -15 228 -241v-17l-15 -12h-16q-90 144 -225 258h-47q-377 -248 -377 -608zM481 797v28l31 23l33 -14l4 -31l-25 -29h-16zM864 125q-3 15 -3 28q0 46 42 60h31l-16 -16l-17 -29l35 -2l6 -14l-10 -29l-37 -19zM1251 727v31 l31 12l31 -12v-31l-23 -20l-14 -2z" />
<glyph unicode="X" horiz-adv-x="1552" d="M100 811q0 451 482 662l206 26h15q526 0 676 -604v-84q0 -499 -553 -674l-138 -12l-180 27v-56q140 0 140 -41q-21 -55 -125 -55h-15q-164 0 -164 55q47 41 123 41v56l-262 178q-205 242 -205 481zM170 825q0 -356 330 -565q-19 19 -19 57v89l4 32h-49l-6 17l318 49 l344 33h98v-15l-387 -39l-70 -6v-117q0 -100 -84 -153v-14l154 -15q466 0 635 524l2 152q-21 389 -488 578l-123 16h-55q-398 0 -577 -471zM211 811l68 70l-68 82v14l82 84l82 -55h14l70 55q96 -59 96 -84l-43 -70q0 -26 43 -26l12 -15v-26l-82 -97h-26l-56 41 q-40 -67 -84 -67q-59 19 -108 94zM504 389l6 -94q12 -51 55 -66l17 15l26 2l8 -23l21 10q71 35 74 152v86q-206 -11 -206 -53q0 -3 1 -6zM774 55l10 15h31l29 -29l-15 -12h-26zM1118 895l58 96h14l67 -55h15q26 0 41 55h12l82 -55l4 -27l-45 -84q58 -15 55 -57 q-51 -98 -82 -106l-57 40q-20 0 -41 -55l-10 -14h-14l-82 96v14l41 82q-58 27 -58 70z" />
<glyph unicode="Y" d="M100 696v76q0 527 590 715l182 12q484 0 699 -545l28 -213q0 -530 -575 -727l-213 -14h-43q-293 0 -561 348q-107 192 -107 348zM145 758q0 -293 213 -500q-75 153 -75 287v30l847 -61h107l152 16l14 -45q0 -109 -90 -252l26 19l170 262l29 199v75q0 429 -514 635 l-152 19h-61q-439 0 -635 -518zM252 713l600 135l-555 182l12 37l580 -199l534 181l11 -41l-508 -164l501 -148l-10 -34l-528 161l-627 -149zM569 121q91 -60 183 -60h182l227 64l49 37l-98 41l-178 10h-166q-131 0 -199 -92z" />
<glyph unicode="Z" d="M100 707v104q0 470 570 676l166 12h28q506 0 709 -584l14 -163q0 -508 -543 -719l-225 -33q-435 0 -690 512zM174 752q0 -451 481 -662l226 -31q441 0 659 496l16 152v90q0 446 -526 628l-121 17h-73q-447 0 -646 -543zM324 811v14l256 181h16l31 -29v-16l-287 -164z M506 690v62l45 45l285 -45h59q317 0 451 254l61 14q59 -15 59 -90v-43q0 -377 -481 -570q-18 -167 -59 -167l-45 47v135q0 21 -152 59q-223 162 -223 299zM551 690q0 -217 358 -330v-14l-14 -76l14 -59l19 -18l26 18v121l285 149q180 149 180 316v118l-26 31l-121 -121 q-181 -118 -408 -118h-14l-299 45v-62zM836 -45l45 31h45l28 -31l-45 -55q-41 10 -59 24q-15 11 -15 25q0 3 1 6zM1182 1155v47l211 -31l-17 -45z" />
<glyph unicode="[" horiz-adv-x="1748" d="M100 750q0 531 584 737l152 12h59q467 0 678 -524l57 -330v-14q-40 0 -104 -225q-274 -406 -676 -406h-14q-436 0 -676 479q-45 98 -60 271zM145 1169v31q82 154 181 225h14q0 -79 -195 -256zM160 811q0 -148 194 -166h17q164 24 164 166v43q0 86 -136 166h-73 q-166 -34 -166 -166v-43zM174 676q0 -361 436 -586l240 -45q494 0 676 541l14 73l-8 52l-31 -31l-110 -35h-31q-195 18 -195 150v104l15 16v15q-645 330 -764 330q-98 -65 -180 -226q90 12 90 33q239 -52 239 -242q-43 -211 -211 -211q-92 0 -180 76v-14zM309 825v15l31 30 h31l28 -30v-15l-28 -30h-31zM354 555l62 59h28q263 -118 361 -118h31q86 0 374 149q119 -18 119 -59v-31q0 -177 -375 -315l-104 -15q-496 92 -496 330zM444 555q15 -45 91 -45h45v14q0 35 -136 76v-45zM489 1305q478 -191 721 -344l209 28l45 -8l31 -25q-40 198 -285 379 q-224 90 -301 90h-59q-247 0 -361 -120zM596 479q0 -38 88 -90q135 27 135 62v14q-180 21 -180 45zM639 299q73 -43 225 -43q95 0 211 43q-69 90 -194 90l-17 -14v-15l-90 29q-135 -35 -135 -90zM1106 541h104q24 0 45 59l-45 14l-104 -45v-28zM1464 1380v15h17 q137 -168 137 -285q-151 174 -154 270z" />
<glyph unicode="]" horiz-adv-x="1748" d="M100 741q0 495 531 729l227 29q588 0 760 -651v-107q0 -534 -580 -727l-211 -14q-356 0 -606 348q-100 106 -121 393zM145 696q0 -333 365 -575q177 -60 272 -60h90q404 0 621 469l33 258q0 410 -488 621l-227 33q-301 0 -528 -291l14 -14h197l16 14l45 -14l-123 -93 q-74 21 -74 48l15 16h-137q-91 -217 -91 -336v-76zM449 334v14h120q166 0 166 -45v-31q0 -38 -121 -59h-28q-24 0 -92 121h-45zM555 293l59 -51h48l45 47l-31 28h-90zM614 1137l183 14h182l45 -43q-35 0 -90 -64q-92 21 -92 64h-197zM965 651q0 235 229 531h27 q115 -131 229 -455v-31q0 -214 -213 -258h-43q-229 61 -229 213zM993 651q0 -141 201 -182h43q153 0 180 244q-15 106 -196 424h-15q-87 -48 -213 -396v-90z" />
<glyph unicode="a" horiz-adv-x="2095" d="M100 1440v14h45q76 0 166 -90h-30q-42 31 -150 31zM131 39v47q0 31 57 31l17 254v239l-74 95q0 41 113 114l-99 10l37 76l105 -26l10 49q34 149 57 149l-28 62l28 182v74l-28 45v30l75 13h29v-254l272 211l29 14l287 43h74l16 92l59 -14l-28 -88l41 -8q20 80 40 80h1 l67 -5l-31 -100l150 -45q33 45 52 45q4 0 7 -2l47 -57l-34 -17l-19 -24l234 -97q4 42 13.5 62.5t21.5 15.5l36 -6l4 -8l-61 -182l-37 26l-4 74l-145 37l92 -72q58 -82 145 -123l31 -20l10 -57l-61 -451h30v-16q0 -31 -45 -31l-12 -43h47l35 39l47 -21l12 -20q20 -58 50 -58 q7 0 14 3l18 -29l-18 -12l-25 12l-16 -12q3 -32 -61 -84l-76 16h-76q-52 0 -195 -152q-235 -149 -481 -149l-285 74q0 -72 -104 -115l-272 -4q-195 27 -195 88zM145 1483v47h29q96 0 137 -121h-14q-56 53 -152 74zM174 719q0 -53 197 -62h118q168 0 183 45q-94 169 -207 175 q-3 -26 -49 -23l-45 29l-129 -88l-31 -33zM219 37l78 -27l14 15v579l-75 23l14 -47v-375zM371 987l30 -20l64 2l10 18h-104zM401 1012h74l31 -25l-31 -92q116 0 242 -193q-27 -61 -76 -61l-16 -195q-2 -35 -2 -65q0 -242 125 -264l194 -62h45q443 0 686 402l4 35l-57 -46 l-45 15v59l59 33h17l-17 -16l-6 -19l23 2q73 0 73 199v57q0 377 -405 602q-183 62 -287 62q-431 0 -631 -428zM506 12l14 -16l49 16l9 60l-9 542l-49 -4v-420zM897 793l16 45l310 -207l-11 26l-28 50q39 -3 135 -125l-31 -29h-31q-57 0 -204 106l-49 -18q-65 3 -68 117z M1118 1604l6 18l60 -4l-8 -29zM1137 1634l28 41l54 -14l-25 -33zM1651 326h118l-10 30v45l6 31h-71zM1690 1063l45 -105l10 -67l16 113q-21 59 -53 59h-18zM1786 385l10 -55l19 -19l45 72l-33 63l-21 23l-12 -10zM1800 1204l152 39h43l30 -31l-30 -28l-119 18zM1815 1243 q50 90 163 90l17 -12l-6 -41l-154 -29z" />
<glyph unicode="b" d="M100 713v45q0 503 545 712l227 29q439 0 682 -500l45 -258q0 -438 -469 -696l-196 -45h-137q-348 0 -590 365q-107 192 -107 348zM176 696q0 -408 486 -620l135 -15h92q441 0 635 484l30 213v14q0 246 -182 410q-24 113 -303 227q-121 33 -242 33q-402 0 -620 -471 l-31 -213v-62zM236 696l30 168l819 -92l408 -59v-107l-8 -49q-53 -133 -90 -141l35 141l4 49q-38 121 -166 121l-244 33l-379 41l-258 20q-76 -15 -76 -108q0 -52 17 -152l14 -76zM252 924v14q77 170 317 170q138 -34 138 -137h-31q-104 90 -166 90h-31q-108 0 -227 -137z M1069 924v47l168 59q272 -67 272 -227h-30q-65 182 -197 182q-89 0 -168 -61h-45z" />
<glyph unicode="c" d="M100 705v106q0 464 570 676l166 12q512 0 718 -538l31 -181v-30q0 -504 -541 -719l-239 -31q-343 0 -615 389q-90 172 -90 316zM145 750q0 -451 480 -660l225 -31q441 0 659 496l19 150v90q0 448 -529 630l-118 17h-76q-445 0 -645 -543zM205 735q0 30 90 45h14v-14 l-22 -12q171 -417 540 -432q398 21 547 354l33 90h-16q-45 0 -45 29l16 16q119 -15 119 -45q-50 0 -70 -57q-172 -424 -592 -424q-379 0 -538 430l-25 30zM489 961l17 90h14v-76l45 45v31l-30 45v14h45q59 -21 59 -135v-60l-16 -75l-21 26l-18 -4l-4 -26l4 -39 q-95 27 -95 164zM1030 961v59l14 -14h17q59 15 59 90h-45l31 28q74 -35 74 -149v-14l-17 -103l-6 4l-8 19l-14 4l-7 -8l7 -37l6 -19l-6 -10h-45q-42 0 -60 150z" />
<glyph unicode="d" d="M100 727v61q0 404 424 635q149 76 348 76q458 0 701 -528l29 -230l-17 -137l33 -43v-53l-76 -29q-212 -479 -731 -479q-429 0 -666 469q-45 131 -45 258zM162 758q0 -482 514 -697l151 -16q453 0 666 410l14 32q-102 27 -102 119l35 43l47 6l63 -28l6 161q0 436 -518 635 l-149 19h-62q-441 0 -637 -518zM252 803v31q0 45 197 75h30q156 0 211 -61q0 -86 -287 -107h-45q-82 0 -106 62zM510 938v16q0 55 166 76h31q121 0 272 -151h14v-15h-45q-135 135 -258 135l-135 -61h-45zM614 741h121v-14l-14 -14v-17q115 -151 258 -151h31v-27l-31 -4 q-169 0 -289 199q-76 0 -76 28zM1315 758v30h45l90 15l76 -31v-59q-74 59 -137 59z" />
<glyph unicode="e" d="M100 612v166q0 518 584 703l178 14q478 0 690 -539l29 -208q0 -401 -375 -644q-192 -104 -313 -104q-603 0 -793 612zM129 629q200 -570 690 -570q492 0 674 539l14 121v74q0 423 -512 628l-147 15h-60q-434 0 -628 -508l-31 -254v-45zM250 1018q41 121 76 121h71 q62 -35 62 -76l135 76q104 -27 104 -138q0 -119 -223 -223q-225 108 -225 240zM279 657l61 76l104 -14l74 14l17 -14v-17l-17 -45l17 17h28v-17q-21 -59 -45 -59l-14 45q-45 -45 -107 -45l-6 -12q-112 24 -112 71zM295 1047q0 -81 59 -105q0 49 62 135l-76 15zM354 1393v14 q82 119 209 119h45q0 -28 -178 -68l-61 -65h-15zM504 973l90 90l-14 14h-31l-45 -45v-59zM938 973q15 133 119 133h30q60 -28 60 -74q112 74 151 74q91 -28 91 -119v-14q0 -120 -226 -225q-146 59 -211 180zM983 973l59 -76h15l-15 16v43l62 76l-31 31h-45l-45 -45v-45z M1087 1495v31h60q180 -52 180 -105v-28q-111 102 -180 102h-60zM1116 283q53 47 105 47l16 -62l-59 -43q-46 9 -62 58zM1192 973l29 -31q15 59 61 59v46h-45l-45 -46v-28z" />
<glyph unicode="f" horiz-adv-x="1898" d="M100 766q0 457 496 688q86 45 240 45h59q139 0 330 -90q40 61 75 61v17q133 -59 195 -121h33q43 43 147 43v16q62 -15 62 -59l12 14h18l15 -75v-45h-45l45 -60l-33 -31h-57l-17 76l47 45l-16 45l-133 -45l45 -223v-47q0 -31 -45 -31l29 -194v-90q0 -459 -558 -674 l-239 -31q-228 30 -434 180q-271 262 -271 586zM190 735q0 -437 465 -631q76 -28 195 -28h45q402 0 614 434l47 285q-24 166 -47 166l-147 -62q-131 41 -242 152l-59 90v119l104 106q-98 76 -391 76q-202 0 -465 -287q-119 -219 -119 -315v-105zM340 631v59q0 78 90 150 l-14 75v15h28l17 14l14 -14l330 -406l14 -45h-14l-45 31h-15q-107 -76 -165 -76h-15q-225 44 -225 197zM371 690q0 -160 164 -225q194 35 194 76q0 58 -106 61l-2 60q-29 72 -160 178zM940 465v45l543 121l12 -17v-14q-121 -35 -121 -90q0 -95 -119 -180h-104 q-83 0 -166 135h-45zM1030 465q65 -121 135 -121q181 0 181 197l-17 14h-12l-123 -31h-43q0 -59 -31 -59h-12l-47 31zM1284 1245q47 -121 123 -121l-14 17v14h14q125 -104 178 -104l17 16l-17 133h-12q0 -59 -45 -59q-66 0 -154 137v57q0 31 45 31l45 -16q-71 92 -147 92 h-17l-16 -47q29 -120 90 -209v-17q-33 0 -74 109h-16v-33z" />
<glyph unicode="g" horiz-adv-x="1800" d="M109 805v518h59v-518h-59zM199 745v15l59 336v317h64v-272l38 90l52 55v264h61v-219l31 23q204 151 471 151q367 0 622 -381q109 -201 109 -364q0 -286 -213 -531q-186 -229 -625 -229q-191 0 -485 244q-184 254 -184 501zM258 774q0 -486 490 -698l241 -33 q241 0 488 229q196 239 196 443l-28 30q-316 0 -351 -65l-45 35h-182v-17q73 -258 319 -258v-14h-47q-259 0 -305 334l625 14v92q-15 176 -244 426q-220 152 -426 152h-59q-264 0 -457 -211v-440h-61v378h-11l-79 -182v-184h-56zM274 731v43l549 -43v-16q0 -218 -229 -303 h-33v14q230 79 230 244v28l-183 17h-76v-35h-28q-57 51 -215 51h-15zM823 72v34q0 35 135 62q170 -21 170 -62v-16l-198 45q-62 -12 -62 -63h-45z" />
<glyph unicode="h" horiz-adv-x="1943" d="M100 682v14q91 3 119 25l2 67q0 410 424 635q137 76 348 76q484 0 699 -545l28 -213v-26l92 -19v-14l-92 4q0 -126 -104 -321v-17l121 -106v-15l-138 90q-237 -317 -696 -317q-376 0 -637 455l-137 -90v14l123 106l-31 197h-121zM258 719l129 -23v-14h-121l31 -182 l135 45v-31q-121 -15 -121 -45q234 -424 637 -424q343 0 574 311q-389 118 -392 144h31q85 0 377 -121q107 155 107 317h-152l-332 -28q9 52 424 73l60 -14v121q0 223 -318 485q-193 109 -370 109h-9q-494 0 -682 -563zM358 954v17h29q105 0 244 -154l-17 -14h-14 q-41 74 -242 151zM510 514v47l29 31q0 -92 61 -107l90 15q0 -41 121 -62h31q89 0 151 92l-14 76h31l14 -76q0 -110 -197 -137h-16q-84 0 -149 62l-62 -17q-61 20 -90 76zM918 758q0 171 364 241l14 -14v-14q-348 -105 -348 -213h-30z" />
<glyph unicode="i" horiz-adv-x="2095" d="M100 766q0 435 480 688q148 45 270 45q463 0 690 -432l59 -168l166 90h15l30 -104l-194 -90q-3 -90 145 -90h19l200 40l11 -4l28 -217q-15 -59 -90 -59h-74q-119 3 -270 104h-14q-30 0 -45 -194q-285 -375 -752 -375q-228 21 -510 285q-164 259 -164 481zM340 1110 l180 104q30 64 76 64v45q-109 0 -256 -199v-14zM371 811q99 -360 538 -360l62 -17l254 17q85 0 256 -76l28 149l-14 17l31 28h-31q-45 0 -45 -45l-76 17h-14l-14 -17l-152 45l16 45h15q0 -59 30 -59h60q261 21 270 121l-14 45l-152 -62h-104q-182 0 -750 316l-59 14 q-135 0 -135 -178zM639 750v16h31l436 -166l29 31q0 -62 30 -62h29l-29 -28l-75 45l-181 -17h-45q-125 0 -194 90h14q101 -73 256 -73h59v28l-90 -14q-59 0 -59 76zM1346 524l73 -14l76 14l-45 -45q-104 21 -104 45z" />
<glyph unicode="j" horiz-adv-x="1748" d="M100 1159q0 31 45 31v16l-24 4l-6 11h30l121 -31q142 197 293 244v16q-35 59 -92 59v17h29l108 -62h14v31l17 -16l274 30q222 0 396 -137l184 33l-14 -47h-109v-15q201 -204 213 -305l78 15v-29h-60q45 -151 45 -276q0 -553 -595 -734l-138 -14h-78q-484 0 -686 580 l-16 122v76q0 178 109 398l-19 -9l-59 -53zM131 1165l29 -20l20 14l21 23l-33 6zM174 764q0 -444 461 -672l242 -47q482 0 688 535l14 137v47q0 495 -547 670l-137 16h-18q-488 0 -670 -535zM344 868v64q0 182 137 182q209 0 230 -153q0 -152 -41 -173l10 -40v-15h-14v31 q-92 -109 -140 -109l17 17v30h-47v15l63 16v15h-16l-47 -15q-152 15 -152 135zM375 885q24 -121 137 -121h14q127 0 154 135v16q-21 154 -137 154q-168 -9 -168 -184zM680 260q15 62 90 62h277l45 -48v-59h-15l-153 45l-230 -45zM1077 932v14q21 152 213 152h15 q132 0 153 -213q-30 -168 -168 -168l-47 16h-12v-16l59 -15l45 -4l-10 -8l-35 -2q-47 0 -47 -33l78 -30v-15h-31q-65 26 -168 138l-14 -15v15l14 16v14q-45 0 -45 154zM1108 899q15 -151 152 -151q153 15 153 137q0 168 -153 168q-152 -21 -152 -154z" />
<glyph unicode="k" horiz-adv-x="1748" d="M100 748q0 341 383 694h31l16 -19q162 76 308 76h45q281 0 491 -180h31l47 14v-14l31 -47l-31 -47q184 -172 184 -477v-46q0 -129 -108 -399q0 -184 -213 -184q-149 -137 -539 -137q0 -31 -201 -31q-45 92 -290 291q-185 253 -185 506zM176 748q0 -374 354 -629 q27 -121 123 -121q112 44 445 59q236 126 354 140q43 34 43 198q94 91 94 416q0 200 -184 399l14 -75v-109l-28 -33v17l-123 -45q-33 0 -109 61l-14 -16v92h-33v14q152 62 231 170q-225 156 -430 156h-61l-199 -33v-33q155 -55 199 -123h-14q-123 70 -277 95h-16 q-369 -237 -369 -600zM455 639q0 108 75 201l-16 16l16 14h15l323 -59l461 45l62 -76l-17 -170l17 -262q-29 0 -29 47h-19l-61 -30v-31l61 -17v-14h-106q-267 0 -537 -123q0 45 -61 45v31h-47v-76l137 -61q405 137 553 137h61l48 33v-17l-48 -47h-75q-90 0 -492 -121h-94 q-162 0 -227 535zM483 1116q60 141 109 156h90q118 0 201 -156v-14l-15 14h-16l-14 -76l30 -30h-30l-185 16l-139 -16zM514 702q0 -47 168 -47l33 78q-9 78 -94 78h-15q-92 -9 -92 -47v-62zM530 1116l15 -76h155l15 15l14 -15h92l17 76q-52 137 -199 137q-109 -35 -109 -137 zM715 672l14 -17h16l277 31v47l-61 62h-93q-153 0 -153 -123zM807 272h14q309 52 309 76v17h-122q-140 27 -140 75v17q75 -61 199 -76q173 0 262 123v45l-14 14v17l-109 -17h-16l-168 33l-78 -33v-14l78 -17v-12h-78l-16 12q-121 0 -121 -215v-45zM1036 702l17 -16h45 l108 16q0 84 -76 93q-67 0 -94 -93zM1176 1087q18 -64 77 -94h15q89 0 123 94q-21 107 -62 107q-153 -74 -153 -107zM1221 748q0 -29 47 -29q94 0 94 76l-66 32l-75 -32v-47z" />
<glyph unicode="l" horiz-adv-x="1845" d="M100 1042v62q30 62 123 62q19 0 41 -3q-82 -18 -88 -192zM129 1090l4 -58l21 -2q6 87 61 121q-74 -21 -86 -61zM162 930l43 -35q0 147 221 461l152 76l2 -19l12 2q153 78 297 78h104l70 -16q88 101 213 104h31l71 -14l-4 -6q-181 -21 -203 -113h15q48 0 313 164l119 12 h31l-9 -8q-186 -70 -186 -184v-17h62q43 0 43 92q42 60 102 60h59l-6 -8q-65 -6 -65 -111l12 -76q0 -95 -191 -104q6 -25 28 -25q12 0 30 8h45v-12l-14 -88l28 -78h17q44 0 82 207l47 33l4 -17l-33 -67l33 -187q-14 -56 -88 -133q-3 -25 -3 -45q0 -30 7 -48q11 -30 41 -25 q-52 -340 -209 -537q-217 -254 -641 -254q-240 0 -551 344q-131 271 -131 572v14zM193 856q52 -112 100 -348q230 -432 596 -432h88q379 0 596 432q73 150 90 250l-39 -41l-6 12l-14 225q90 50 90 150v76q-18 -141 -76 -150h-31q-87 75 -84 131l39 49l2 13l-16 -9l-29 -6 q-78 0 -90 43q3 23 195 76l28 59l-14 91v16l31 43h-11q-52 -33 -52 -115q0 -9 1 -18l-71 -17h-17l-74 17v74q71 105 113 114l6 4h-16q-214 -137 -342 -180l-43 17v30q57 90 129 99l4 6h-14q-60 0 -209 -119q-268 0 -478 -121v16l31 43q-97 -51 -117 -110l-16 -8v6 q0 45 41 98q-106 0 -176 -313l-59 -133l-31 12h-15l31 -43v-74l-71 51v-16zM309 537v16h29l209 -16l-135 133h14l209 -133v-29l-21 -2l-8 -12zM872 508v45l373 149h17v-16l-285 -133v-16h418v-15l-477 -28z" />
<glyph unicode="m" d="M100 750q0 492 525 720l194 29h45q505 0 707 -524l28 -180v-74q0 -479 -555 -690l-225 -31q-388 0 -659 465zM190 766q0 -459 465 -662l136 -28h118q411 0 617 434l14 45l-149 14v31l180 45v90h-45l-152 60v30h17q92 -59 163 -59h17v14q0 411 -465 629l-180 33l-238 -47 l-4 -13q332 -197 332 -258v-28q-122 -152 -211 -152h-45l-60 62v14h29q0 -59 76 -59q103 50 180 149v14q-61 86 -317 238l-29 4l-104 -88h-15l88 102l-2 15l-31 20q-91 -6 -204 -155q43 0 225 -150l84 -70l-12 2l-88 68l-105 59h-14q-100 -248 -232 -248q-9 0 -18 1z M205 961h76q50 8 145 213q-9 50 -72 71q-149 -204 -149 -270v-14zM606 1442q3 -33 45 -33l264 55l-34 6h-107zM700 569v17l136 14l299 -45v-14q0 -41 -209 -76h-31v14l90 17v14q-45 0 -104 59h-181zM745 676q237 0 449 194v-16q-176 -209 -389 -209h-31zM1016 510h14l31 31 h-17zM1225 854l45 45v16h14v-45l-14 -16h-45zM1239 225v31l35 25l26 -25l-30 -31h-31zM1413 590l8 -12l21 -3l-8 23zM1526 569q28 0 28 45v17h-14z" />
<glyph unicode="n" horiz-adv-x="1748" d="M100 1473l39 40l56 -63q13 -7 13 -24q0 -34 -52 -107l-45 31l55 69zM111 766q0 437 479 686q146 45 255 45h13h16q569 0 736 -643v-133q0 -475 -541 -690l-223 -31q-419 0 -662 451q-46 63 -73 315zM166 1554l35 31l59 -67l72 45l30 -27q-63 -67 -109 -67q-14 0 -26 6z M184 643q0 -176 168 -344h13q67 315 374 315h45q344 0 451 -73q119 -131 119 -271q194 182 194 480v16q-27 283 -88 283q-77 -344 -286 -344q-101 0 -254 135l493 254h17v14q-196 313 -601 313q-293 0 -524 -299v-14q430 -207 508 -285l-29 -28v14q-168 -104 -270 -104 q-268 56 -268 223l6 92l-6 14q-62 -139 -62 -284v-107zM246 1288q-7 35 -7 62q0 42 16 66q23 36 82 37q7 0 15 -1h29l-12 -43q-21 5 -37 5q-31 0 -42 -18q-7 -11 -7 -28q0 -26 16 -68zM260 1065q0 -233 166 -315l14 -13l31 -4q120 0 254 76v14q-359 242 -434 242h-31z M365 270q234 -225 464 -225q450 43 494 225l-43 29l-225 -29h-181l-374 29l-90 -14v45h-15zM426 360l14 -47l45 17l316 -31h28l76 14h88l107 -24q52 27 180 41v59q0 176 -299 197h-92q-404 0 -404 -107q-41 0 -59 -119zM993 823q63 -90 152 -90h45q209 62 209 256v31h-15 l-391 -180v-17zM1489 1260q87 -9 90 -46v-61l-31 2q5 34 -9 49.5t-48 14.5zM1503 1280l8 37q30 -30 51 -30q27 0 37 52l25 -20l-45 -64zM1599 1257l60 31l8 -16l-41 -39l33 -47l-21 -15q-44 35 -44 66q0 10 5 20z" />
<glyph unicode="o" horiz-adv-x="1748" d="M100 1026v31q0 94 197 258l14 39q-137 21 -137 53v12q27 -30 213 -45l43 -59q201 180 457 180h43q511 0 710 -528l31 -211v-45q0 -449 -497 -680l-334 -45q-132 0 -514 239q-197 38 -197 168l45 211l-14 152l14 121q-37 0 -74 149zM184 1462q35 99 154 123l4 14l31 -28 q0 -35 -66 -41q-64 -3 -123 -68zM250 680q0 -88 176 -211l4 14l154 -14q21 61 47 61h12v-16l-12 -14v-17l119 -45v31h16q67 -76 104 -76l45 17q0 -35 107 -78q9 -60 45 -60h29q-170 271 -437 271v16h107q139 0 408 -303l43 -14l108 30q0 -38 -108 -47l-107 17 q-187 -45 -330 -45h-75l-15 16l-166 -16q144 -138 346 -138l60 -12l51 12v47h10v-47h35v47h10v-47h31l33 11v53h10v-47h35v35l10 2v-29l21 4l69 37l-2 16l4 9l15 -19l18 4q317 246 317 424h-16l-61 14l-74 -43l-62 29v-16l62 -60h-16q-76 40 -76 107h-43q-82 -76 -185 -76 h-73l-76 16v13h45l74 -13q151 44 151 74l-104 31l-33 -31q-119 18 -119 107l-180 75v43h12q447 -194 547 -194l14 14q0 -45 197 -45h16l29 31v151q0 332 -346 557q-108 69 -289 93h-61q-488 0 -664 -531l-16 -135v-90zM332 344l2 -57l31 -35l63 -10q37 6 49 61 q-38 86 -61 86h-56zM469 434l45 -72l12 -47l-34 -90q24 -1 47 -1q197 0 241 95q0 117 -241 117q-33 0 -70 -2zM750 213h30l242 29v14l-107 16l-61 -30l-59 14zM766 801v45l14 14h15v-14l-15 -45h-14z" />
<glyph unicode="p" d="M100 750q0 489 525 720l225 29h14q572 0 735 -659v-90q0 -525 -569 -719l-194 -31q-182 0 -465 180q-271 280 -271 570zM190 705q0 -375 435 -601l194 -28h90q437 0 631 510l14 73v107q0 425 -479 643l-211 33q-465 0 -659 -527l-15 -149v-61zM219 735v15l451 61v-16 q-82 -240 -271 -240h-104v14q112 0 225 45v17l-76 -17h-149v17q330 0 330 164q-144 -24 -209 -74zM416 360v46q148 0 254 -136h-15q-126 105 -194 105zM639 569l16 17h60l45 -31l-31 -104l16 -76l-45 -45v-15l-45 15v135l15 76zM684 256h16l136 -61q285 135 358 135 q121 24 121 59v31l-15 76h46q0 -181 -136 -181q-71 0 -329 -135h-31q-166 21 -166 76zM909 555q24 59 45 59h17l45 -45l-45 -45zM1016 854h14l434 -59v-15h-28l-90 15l-91 -29q-77 59 -149 59h-31v-30q71 -105 164 -105v-14h-74v-17l105 -28v-17h-45q-209 80 -209 240z" />
<glyph unicode="q" d="M100 745l60 299l-31 134q0 145 211 194h12l62 -14q207 133 432 133q273 0 563 -223q197 -83 197 -224q0 -773 -359 -911q-177 -133 -446 -133q-311 0 -582 358q-79 105 -119 387zM129 760q0 -438 446 -656l240 -45q490 0 672 539l14 119v43q-109 -65 -209 -74 q-255 0 -282 313v15q51 160 86 168l4 10l133 106q-185 119 -359 134h-59q-231 0 -342 -105q102 -83 102 -194l-14 -74l-14 -15q-55 -118 -178 -118l-121 28l-60 45q-30 -41 -59 -239zM160 1118l86 -141l16 -6l133 -17q73 0 150 105l2 59l14 15q0 138 -192 208 q-175 0 -209 -223zM233 1446v31l74 73h15q82 0 106 -59v-31h-14l-74 45zM340 1133v16l29 29h14l45 -29l-14 -45h-45zM532 373l21 63l-21 27h29q60 -22 60 -105l-15 -16h-45zM1024 999q56 -282 268 -282q285 53 285 282v29q0 194 -285 240q-93 0 -192 -105q-76 -104 -76 -164 zM1188 999v15l26 37l27 4l37 -41v-15l-31 -28h-28zM1427 1403v14h46l147 -192l-14 -19h-29q-150 114 -150 197z" />
<glyph unicode="r" d="M100 696v107q0 478 576 684l166 12h30q273 0 545 -242h82l-12 -8l-53 -8v-14l120 -119l-30 -33q75 -138 75 -317v-17q0 -277 -182 -483q-221 -258 -499 -258h-107q-357 0 -604 348q-107 192 -107 348zM162 758q0 -434 452 -668l154 -29h135q410 0 621 469l30 211v31 q0 325 -196 365q-137 40 -137 75q0 29 120 29q-207 201 -483 201q-480 0 -668 -533zM449 1030v31q0 39 380 141l-18 10l-141 19l-8 10h303v-59l-500 -166zM948 788q188 305 228 320q33 0 106 -229h-20q-28 18 -86 165l-21 -6q-136 -244 -199 -278zM1327 1227q0 -33 76 -45 l-47 49z" />
<glyph unicode="s" d="M100 696v107q0 478 576 684l166 12q591 0 757 -665v-93q0 -530 -575 -727l-90 -14h-152q-345 0 -592 379q-90 169 -90 317zM162 758q0 -443 452 -668l244 -45q460 0 680 516l16 152v45l-120 -45l-76 28v17q8 15 26 41l13 18q3 11 12 19l21 30q8 19 18 29l-29 -109l19 15 l116 33q0 295 -393 544l-243 64h-60q-492 0 -668 -533zM600 727v45l31 31l420 -21l-41 62q132 -53 135 -86v-17l-31 -28h-303q-53 -62 -104 -62zM979 121v14l59 47h31v-14q-6 -35 -76 -62z" />
<glyph unicode="t" d="M100 66v30l29 27h59l25 -23l-10 -28l-29 -21zM158 756q0 462 485 690l295 57l43 72l6 -8l8 -49l-14 -15v-16l145 -29l119 45l-4 -14l-43 -59v-15q428 -200 428 -659q0 -407 -352 -617v-16q338 -27 338 -88v-29q-55 -28 -426 -43l-412 -88q-262 0 -262 117 q-194 65 -236 119v12l175 45q-293 290 -293 588zM229 651q0 -171 150 -321l-14 57l-17 221q0 262 119 262l324 45q-56 -53 -97 -233l-22 -74l10 -336l6 -47l33 -102q13 -44 86 -44q13 0 27 1h131q119 0 125 92l36 234l-28 217l-29 102l-74 176l367 -12l74 -19l-45 -41 l45 -206q0 -231 -105 -381h15q221 229 221 469v45q0 402 -396 602h-16v-31h31l-4 -10l-99 -21l-73 17l-15 -17v31h-30l-60 -14l-57 14l-88 -14l14 14v12l-14 19l14 12l-14 14h-31q-500 -172 -500 -616v-117zM373 580l6 -91l2 -77l12 -25q0 -171 250 -307h74l-45 145l-29 221 l14 177l29 102l43 131l-170 -2l-135 -29l-33 -84zM1053 844l57 -193l31 -235l-31 -262l-12 -43l-29 -45q0 -31 41 -31q202 96 281 397l16 119l-45 278l-309 27v-12z" />
<glyph unicode="u" d="M100 766q21 238 164 467q120 -27 123 -215l12 2q74 182 226 217l-29 8q-60 23 -76 60l-14 90l-14 -2q-91 -158 -209 -158h-4q228 264 571 264h14q491 0 690 -493q45 -89 45 -240v-16q0 -520 -555 -719l-180 -31q-526 0 -735 569zM174 659q0 -288 406 -538l239 -62 q438 0 662 420q59 95 59 316q0 189 -166 391h-28q-46 -91 -46 -225v-31h-16q-20 0 -90 166q-106 118 -178 118v19l121 76l6 14l18 45q-82 39 -297 74h-59q-134 -19 -201 -51t-65 -76l28 -35l21 -14l37 -6l30 -15v-31q-157 0 -280 -313l-21 -2l17 107q-15 163 -62 163 q-135 -175 -135 -403v-107zM684 766h315q-73 -525 -147 -528h-33q-30 3 -98 182l2 31zM745 451q47 -195 91 -195l28 29q62 103 62 180l-45 31h-45q-91 -9 -91 -45zM1071 1227q125 -12 201 -252h12q0 239 90 248v22q-74 0 -184 131l-10 4l-29 -90l-45 -33z" />
<glyph unicode="v" d="M100 748q0 498 533 733l229 26h17q278 0 473 -180l14 14h31q0 -36 151 -243l45 -152h-14q-106 -26 -106 -61v-76q18 -104 47 -107l73 15l33 -45q0 -314 -397 -594q-191 -78 -426 -78q-319 0 -584 352q-79 118 -119 396zM174 764q0 -446 459 -672l246 -47q501 0 686 551 l14 76h-14q-58 0 -336 -260v30l260 230l-47 121v120q-412 -150 -412 -364v-107q30 -153 60 -153l77 76h15q-3 -34 -92 -105q-91 35 -91 244v45q0 248 490 412h59q-18 131 -182 288l-14 -45h-31v45l14 47h-14q-201 154 -414 154h-28q-484 0 -672 -520zM207 1204v17l59 168 v106l45 12l17 -12v-14q0 -86 -90 -277h-31zM451 809v45l501 107h19v-60l-506 -108zM1212 1554v45h17l151 -180l62 -61h-15q-145 71 -215 196z" />
<glyph unicode="w" d="M100 758q0 403 365 620v17l-47 -6l-121 -68h-14v57l559 121q452 0 682 -438q75 -153 75 -320q0 -485 -530 -710l-227 -31h-15q-509 0 -712 575zM162 758q0 -480 500 -682l196 -31q505 0 696 576v167q0 242 -106 242l-334 -59q-83 0 -104 90h45q0 -45 75 -45h15l334 59 q-229 367 -576 367h-76q-213 -15 -213 -64q110 -15 228 -241v-17l-15 -12h-16q-90 144 -225 258h-47q-377 -248 -377 -608zM481 797v28l31 23l33 -14l4 -31l-25 -29h-16zM864 125q-3 15 -3 28q0 46 42 60h31l-16 -16l-17 -29l35 -2l6 -14l-10 -29l-37 -19zM1251 727v31 l31 12l31 -12v-31l-23 -20l-14 -2z" />
<glyph unicode="x" horiz-adv-x="1552" d="M100 811q0 451 482 662l206 26h15q526 0 676 -604v-84q0 -499 -553 -674l-138 -12l-180 27v-56q140 0 140 -41q-21 -55 -125 -55h-15q-164 0 -164 55q47 41 123 41v56l-262 178q-205 242 -205 481zM170 825q0 -356 330 -565q-19 19 -19 57v89l4 32h-49l-6 17l318 49 l344 33h98v-15l-387 -39l-70 -6v-117q0 -100 -84 -153v-14l154 -15q466 0 635 524l2 152q-21 389 -488 578l-123 16h-55q-398 0 -577 -471zM211 811l68 70l-68 82v14l82 84l82 -55h14l70 55q96 -59 96 -84l-43 -70q0 -26 43 -26l12 -15v-26l-82 -97h-26l-56 41 q-40 -67 -84 -67q-59 19 -108 94zM504 389l6 -94q12 -51 55 -66l17 15l26 2l8 -23l21 10q71 35 74 152v86q-206 -11 -206 -53q0 -3 1 -6zM774 55l10 15h31l29 -29l-15 -12h-26zM1118 895l58 96h14l67 -55h15q26 0 41 55h12l82 -55l4 -27l-45 -84q58 -15 55 -57 q-51 -98 -82 -106l-57 40q-20 0 -41 -55l-10 -14h-14l-82 96v14l41 82q-58 27 -58 70z" />
<glyph unicode="y" d="M100 696v76q0 527 590 715l182 12q484 0 699 -545l28 -213q0 -530 -575 -727l-213 -14h-43q-293 0 -561 348q-107 192 -107 348zM145 758q0 -293 213 -500q-75 153 -75 287v30l847 -61h107l152 16l14 -45q0 -109 -90 -252l26 19l170 262l29 199v75q0 429 -514 635 l-152 19h-61q-439 0 -635 -518zM252 713l600 135l-555 182l12 37l580 -199l534 181l11 -41l-508 -164l501 -148l-10 -34l-528 161l-627 -149zM569 121q91 -60 183 -60h182l227 64l49 37l-98 41l-178 10h-166q-131 0 -199 -92z" />
<glyph unicode="z" d="M100 707v104q0 470 570 676l166 12h28q506 0 709 -584l14 -163q0 -508 -543 -719l-225 -33q-435 0 -690 512zM174 752q0 -451 481 -662l226 -31q441 0 659 496l16 152v90q0 446 -526 628l-121 17h-73q-447 0 -646 -543zM324 811v14l256 181h16l31 -29v-16l-287 -164z M506 690v62l45 45l285 -45h59q317 0 451 254l61 14q59 -15 59 -90v-43q0 -377 -481 -570q-18 -167 -59 -167l-45 47v135q0 21 -152 59q-223 162 -223 299zM551 690q0 -217 358 -330v-14l-14 -76l14 -59l19 -18l26 18v121l285 149q180 149 180 316v118l-26 31l-121 -121 q-181 -118 -408 -118h-14l-299 45v-62zM836 -45l45 31h45l28 -31l-45 -55q-41 10 -59 24q-15 11 -15 25q0 3 1 6zM1182 1155v47l211 -31l-17 -45z" />
<glyph unicode="&#x2000;" horiz-adv-x="837" />
<glyph unicode="&#x2001;" horiz-adv-x="1675" />
<glyph unicode="&#x2002;" horiz-adv-x="837" />
<glyph unicode="&#x2003;" horiz-adv-x="1675" />
<glyph unicode="&#x2004;" horiz-adv-x="558" />
<glyph unicode="&#x2005;" horiz-adv-x="418" />
<glyph unicode="&#x2006;" horiz-adv-x="279" />
<glyph unicode="&#x2007;" horiz-adv-x="279" />
<glyph unicode="&#x2008;" horiz-adv-x="209" />
<glyph unicode="&#x2009;" horiz-adv-x="335" />
<glyph unicode="&#x200a;" horiz-adv-x="93" />
<glyph unicode="&#x202f;" horiz-adv-x="335" />
<glyph unicode="&#x205f;" horiz-adv-x="418" />
<glyph unicode="&#x25fc;" horiz-adv-x="1495" d="M0 0v1495h1495v-1495h-1495z" />
</font>
</defs>
</svg>
