<?xml version="1.0" standalone="no"?>
<!DOCTYPE svg PUBLIC "-//W3C//DTD SVG 1.1//EN" "http://www.w3.org/Graphics/SVG/1.1/DTD/svg11.dtd" >
<svg xmlns="http://www.w3.org/2000/svg">
<metadata></metadata>
<defs>
<font id="rostros_y_emocionesregular" horiz-adv-x="3198" >
<font-face units-per-em="2048" ascent="1638" descent="-410" />
<missing-glyph horiz-adv-x="1016" />
<glyph horiz-adv-x="0" />
<glyph unicode="&#xd;" horiz-adv-x="1016" />
<glyph unicode=" "  horiz-adv-x="1016" />
<glyph unicode="&#x09;" horiz-adv-x="1016" />
<glyph unicode="&#xa0;" horiz-adv-x="1016" />
<glyph unicode="!" horiz-adv-x="3204" d="M6 1352v96q0 676 664 1152q364 200 688 200h96q676 0 1152 -664q200 -364 200 -688v-96q0 -676 -664 -1152q-364 -200 -688 -200h-96q-676 0 -1152 664q-200 364 -200 688zM150 1344q0 -460 408 -872q398 -336 848 -336q588 0 1024 528q240 380 240 736q0 588 -528 1024 q-368 232 -680 232h-112q-488 0 -920 -456q-280 -392 -280 -744v-112zM598 1824v56q32 232 152 232h32q120 0 152 -232v-56q-32 -232 -152 -232h-32q-120 0 -152 232zM678 916v48q184 304 400 304h32q152 0 296 -184q156 184 280 184h64l48 -8q232 -84 344 -312 q0 -58 -64 -80l-40 8q-190 248 -304 248h-32q-40 0 -104 -40q-156 -208 -176 -208q-34 0 -64 16q-146 232 -248 232h-24q-38 0 -80 -24q-56 -10 -232 -224h-56q-40 30 -40 40zM1886 1832v56q32 232 152 232h32q120 0 152 -232v-56q-32 -232 -152 -232h-32q-120 0 -152 232z " />
<glyph unicode="&#x22;" horiz-adv-x="3222" d="M6 1352v96q0 676 664 1152q364 200 688 200h96q676 0 1152 -664q200 -364 200 -688v-96q0 -676 -664 -1152q-364 -200 -688 -200h-96q-676 0 -1152 664q-200 364 -200 688zM150 1344q0 -460 408 -872q398 -336 848 -336q588 0 1024 528q240 380 240 736q0 588 -528 1024 q-368 232 -680 232h-112q-488 0 -920 -456q-280 -392 -280 -744v-112zM598 1824v56q32 232 152 232h32q120 0 152 -232v-56q-32 -232 -152 -232h-32q-120 0 -152 232zM678 1032v48q0 10 40 40h56q176 -214 232 -224q42 -24 80 -24h24q102 0 248 232q30 16 64 16 q20 0 176 -208q64 -40 104 -40h32q114 0 304 248l40 8q64 -22 64 -80q-112 -228 -344 -312l-48 -8h-64q-124 0 -280 184q-144 -184 -296 -184h-32q-216 0 -400 304zM1886 1832v56q32 232 152 232h32q120 0 152 -232v-56q-32 -232 -152 -232h-32q-120 0 -152 232z" />
<glyph unicode="#" horiz-adv-x="3192" d="M-6 1352v96q0 676 664 1152q364 200 688 200h96q676 0 1152 -664q200 -364 200 -688v-96q0 -676 -664 -1152q-364 -200 -688 -200h-96q-676 0 -1152 664q-200 364 -200 688zM138 1344q0 -460 408 -872q398 -336 848 -336q588 0 1024 528q240 380 240 736q0 588 -528 1024 q-368 232 -680 232h-112q-488 0 -920 -456q-280 -392 -280 -744v-112zM682 1168q4 0 48 40h48q48 0 64 -184q168 -352 552 -352q392 0 552 360q10 176 80 176h8q72 -10 72 -72q0 -402 -504 -584q-136 -24 -224 -24q-440 0 -656 408q-40 110 -40 232zM1226 1824v56 q32 232 152 232h32q120 0 152 -232v-56q-32 -232 -152 -232h-32q-120 0 -152 232z" />
<glyph unicode="$" horiz-adv-x="3192" d="M-6 1352v96q0 676 664 1152q364 200 688 200h96q676 0 1152 -664q200 -364 200 -688v-96q0 -676 -664 -1152q-364 -200 -688 -200h-96q-676 0 -1152 664q-200 364 -200 688zM138 1344q0 -460 408 -872q398 -336 848 -336q588 0 1024 528q240 380 240 736q0 588 -528 1024 q-368 232 -680 232h-112q-488 0 -920 -456q-280 -392 -280 -744v-112zM578 1824v56q32 232 152 232h32q120 0 152 -232v-56q-32 -232 -152 -232h-32q-120 0 -152 232zM1330 976v40q0 10 40 40h48q10 0 40 -40v-40q0 -10 -40 -40h-48q-10 0 -40 40zM1866 1824v56 q32 232 152 232h32q120 0 152 -232v-56q-32 -232 -152 -232h-32q-120 0 -152 232z" />
<glyph unicode="%" d="M0 1352v96q0 676 664 1152q364 200 688 200h96q676 0 1152 -664q200 -364 200 -688v-96q0 -676 -664 -1152q-364 -200 -688 -200h-96q-676 0 -1152 664q-200 364 -200 688zM144 1344q0 -460 408 -872q398 -336 848 -336q588 0 1024 528q240 380 240 736q0 588 -528 1024 q-368 232 -680 232h-112q-488 0 -920 -456q-280 -392 -280 -744v-112zM584 1832v56q32 232 152 232h32q120 0 152 -232v-56q-32 -232 -152 -232h-32q-120 0 -152 232zM696 720v48q0 42 400 168q766 296 944 344h24q12 0 48 -48v-40q0 -50 -336 -152q-830 -320 -1008 -368 h-24q-12 0 -48 48zM1872 1840v56q32 232 152 232h32q120 0 152 -232v-56q-32 -232 -152 -232h-32q-120 0 -152 232z" />
<glyph unicode="&#x26;" d="M0 1352v96q0 676 664 1152q364 200 688 200h96q676 0 1152 -664q200 -364 200 -688v-96q0 -676 -664 -1152q-364 -200 -688 -200h-96q-676 0 -1152 664q-200 364 -200 688zM136 1400q0 -636 576 -1056q342 -208 688 -208q648 0 1072 600q192 336 192 664q0 620 -552 1040 q-348 224 -712 224q-636 0 -1056 -576q-208 -336 -208 -688zM592 1840v56q32 232 152 232h32q120 0 152 -232v-56q-32 -232 -152 -232h-32q-120 0 -152 232zM688 1216q0 52 72 64q38 0 1328 -488l16 -56q0 -52 -72 -64q-38 0 -1328 488zM1880 1832v56q32 232 152 232h32 q120 0 152 -232v-56q-32 -232 -152 -232h-32q-120 0 -152 232z" />
<glyph unicode="'" horiz-adv-x="3194" d="M6 1344v112q0 582 528 1048q408 296 816 296h112q582 0 1048 -528q296 -408 296 -816v-112q0 -582 -528 -1048q-408 -296 -816 -296h-112q-582 0 -1048 528q-296 408 -296 816zM150 1344q0 -462 416 -880q390 -320 792 -320h96q422 0 816 344q392 400 392 880v80 q0 514 -480 944q-370 264 -744 264h-88q-510 0 -944 -488q-256 -378 -256 -712v-112zM590 1832v56q38 240 160 240h32q120 0 152 -232v-56q-38 -240 -160 -240h-32q-120 0 -152 232zM694 1216q0 52 72 64l640 -224q612 224 640 224h24q12 0 48 -48v-40q0 -50 -376 -168 q-120 -46 -120 -56q470 -162 472 -184q16 -26 16 -48q0 -52 -72 -64q-80 22 -632 224q-598 -224 -632 -224h-24q-12 0 -48 48v48q0 42 488 200q-32 24 -480 192zM1878 1840v56q32 232 152 232h32q160 -56 160 -240v-56q-32 -232 -152 -232h-32q-160 56 -160 240z" />
<glyph unicode="(" horiz-adv-x="3204" d="M6 1352v96q0 676 664 1152q364 200 688 200h96q676 0 1152 -664q200 -364 200 -688v-96q0 -676 -664 -1152q-364 -200 -688 -200h-96q-676 0 -1152 664q-200 364 -200 688zM150 1344q0 -460 408 -872q398 -336 848 -336q588 0 1024 528q240 380 240 736q0 588 -528 1024 q-368 232 -680 232h-112q-488 0 -920 -456q-280 -392 -280 -744v-112zM598 1824v56q32 232 152 232h32q120 0 152 -232v-56q-32 -232 -152 -232h-32q-120 0 -152 232zM838 912v24q0 12 48 48h24q36 0 160 -128q124 128 160 128h8q36 0 160 -128q122 128 168 128h16 q36 0 160 -128q122 128 168 128q52 0 64 -72q0 -34 -128 -160l120 -128v-56q0 -10 -40 -40h-56l-128 120q-126 -128 -160 -128q-76 0 -168 120l-16 8q-126 -128 -160 -128q-46 0 -168 128q-116 -120 -152 -120h-8q-64 0 -64 64v8q0 36 120 152q-128 124 -128 160zM1174 752 q0 -12 56 -56h8q12 0 56 56q0 12 -56 56h-8q-12 0 -56 -56zM1182 1304v16q10 72 72 72h24q72 -10 72 -72v-16q-10 -72 -72 -72h-24q-72 10 -72 72zM1470 1304v16q10 72 72 72h24q72 -10 72 -72v-16q-10 -72 -72 -72h-24q-72 10 -72 72zM1502 752q0 -10 64 -64h8q10 0 64 64 q0 10 -64 64h-8q-10 0 -64 -64zM1886 1832v56q32 232 152 232h32q120 0 152 -232v-56q-32 -232 -152 -232h-32q-120 0 -152 232z" />
<glyph unicode=")" horiz-adv-x="3204" d="M6 1352v96q0 676 664 1152q364 200 688 200h96q676 0 1152 -664q200 -364 200 -688v-96q0 -676 -664 -1152q-364 -200 -688 -200h-96q-676 0 -1152 664q-200 364 -200 688zM150 1344q0 -460 408 -872q398 -336 848 -336q588 0 1024 528q240 380 240 736q0 588 -528 1024 q-368 232 -680 232h-112q-488 0 -920 -456q-280 -392 -280 -744v-112zM542 2152v56q180 192 200 192h32q54 0 224 -208v-40q0 -12 -48 -48h-24q-36 0 -160 120l-128 -112h-56q-10 0 -40 40zM598 1824v56q32 232 152 232h32q120 0 152 -232v-56q-32 -232 -152 -232h-32 q-120 0 -152 232zM1270 840v64q0 10 40 40h40l304 -136q82 -32 144 -32h16q96 0 96 136q34 32 64 32q72 -10 72 -72q0 -206 -200 -240h-32q-234 0 -544 208zM1830 2152v56q180 192 200 192h32q54 0 224 -208v-40q0 -12 -48 -48h-24q-36 0 -160 120l-128 -112h-56 q-10 0 -40 40zM1886 1832v56q32 232 152 232h32q120 0 152 -232v-56q-32 -232 -152 -232h-32q-120 0 -152 232z" />
<glyph unicode="*" horiz-adv-x="3200" d="M-6 1352v96q0 676 664 1152q364 200 688 200h96q676 0 1152 -664q200 -364 200 -688v-96q0 -676 -664 -1152q-364 -200 -688 -200h-96q-676 0 -1152 664q-200 364 -200 688zM138 1344q0 -460 408 -872q398 -336 848 -336q588 0 1024 528q240 380 240 736q0 588 -528 1024 q-368 232 -680 232h-112q-488 0 -920 -456q-280 -392 -280 -744v-112zM530 2152v56q180 192 200 192h32q54 0 224 -208v-40q0 -12 -48 -48h-24q-36 0 -160 120l-128 -112h-56q-10 0 -40 40zM586 1824v56q32 232 152 232h32q120 0 152 -232v-56q-32 -232 -152 -232h-32 q-120 0 -152 232zM1818 2152v56q180 192 200 192h32q54 0 224 -208v-40q0 -12 -48 -48h-24q-36 0 -160 120l-128 -112h-56q-10 0 -40 40zM1874 1832v56q32 232 152 232h32q120 0 152 -232v-56q-32 -232 -152 -232h-32q-120 0 -152 232z" />
<glyph unicode="+" horiz-adv-x="2028" />
<glyph unicode="," horiz-adv-x="1114" />
<glyph unicode="-" horiz-adv-x="1340" />
<glyph unicode="." horiz-adv-x="1114" />
<glyph unicode="/" horiz-adv-x="1138" />
<glyph unicode="0" horiz-adv-x="3204" d="M6 1352v96q0 676 664 1152q364 200 688 200h96q676 0 1152 -664q200 -364 200 -688v-96q0 -676 -664 -1152q-364 -200 -688 -200h-96q-676 0 -1152 664q-200 364 -200 688zM150 1344q0 -460 408 -872q398 -336 848 -336q588 0 1024 528q240 380 240 736q0 588 -528 1024 q-368 232 -680 232h-112q-488 0 -920 -456q-280 -392 -280 -744v-112zM598 1824v56q32 232 152 232h32q120 0 152 -232v-56q-32 -232 -152 -232h-32q-120 0 -152 232zM678 916v48q184 304 400 304h32q152 0 296 -184q156 184 280 184h64l48 -8q232 -84 344 -312 q0 -58 -64 -80l-40 8q-190 248 -304 248h-32q-40 0 -104 -40q-156 -208 -176 -208q-34 0 -64 16q-146 232 -248 232h-24q-38 0 -80 -24q-56 -10 -232 -224h-56q-40 30 -40 40zM1886 1832v56q32 232 152 232h32q120 0 152 -232v-56q-32 -232 -152 -232h-32q-120 0 -152 232z " />
<glyph unicode="1" horiz-adv-x="3222" d="M6 1352v96q0 676 664 1152q364 200 688 200h96q676 0 1152 -664q200 -364 200 -688v-96q0 -676 -664 -1152q-364 -200 -688 -200h-96q-676 0 -1152 664q-200 364 -200 688zM150 1344q0 -460 408 -872q398 -336 848 -336q588 0 1024 528q240 380 240 736q0 588 -528 1024 q-368 232 -680 232h-112q-488 0 -920 -456q-280 -392 -280 -744v-112zM598 1824v56q32 232 152 232h32q120 0 152 -232v-56q-32 -232 -152 -232h-32q-120 0 -152 232zM678 1032v48q0 10 40 40h56q176 -214 232 -224q42 -24 80 -24h24q102 0 248 232q30 16 64 16 q20 0 176 -208q64 -40 104 -40h32q114 0 304 248l40 8q64 -22 64 -80q-112 -228 -344 -312l-48 -8h-64q-124 0 -280 184q-144 -184 -296 -184h-32q-216 0 -400 304zM1886 1832v56q32 232 152 232h32q120 0 152 -232v-56q-32 -232 -152 -232h-32q-120 0 -152 232z" />
<glyph unicode="2" horiz-adv-x="3192" d="M-6 1352v96q0 676 664 1152q364 200 688 200h96q676 0 1152 -664q200 -364 200 -688v-96q0 -676 -664 -1152q-364 -200 -688 -200h-96q-676 0 -1152 664q-200 364 -200 688zM138 1344q0 -460 408 -872q398 -336 848 -336q588 0 1024 528q240 380 240 736q0 588 -528 1024 q-368 232 -680 232h-112q-488 0 -920 -456q-280 -392 -280 -744v-112zM682 1168q4 0 48 40h48q48 0 64 -184q168 -352 552 -352q392 0 552 360q10 176 80 176h8q72 -10 72 -72q0 -402 -504 -584q-136 -24 -224 -24q-440 0 -656 408q-40 110 -40 232zM1226 1824v56 q32 232 152 232h32q120 0 152 -232v-56q-32 -232 -152 -232h-32q-120 0 -152 232z" />
<glyph unicode="3" horiz-adv-x="3192" d="M-6 1352v96q0 676 664 1152q364 200 688 200h96q676 0 1152 -664q200 -364 200 -688v-96q0 -676 -664 -1152q-364 -200 -688 -200h-96q-676 0 -1152 664q-200 364 -200 688zM138 1344q0 -460 408 -872q398 -336 848 -336q588 0 1024 528q240 380 240 736q0 588 -528 1024 q-368 232 -680 232h-112q-488 0 -920 -456q-280 -392 -280 -744v-112zM578 1824v56q32 232 152 232h32q120 0 152 -232v-56q-32 -232 -152 -232h-32q-120 0 -152 232zM1330 976v40q0 10 40 40h48q10 0 40 -40v-40q0 -10 -40 -40h-48q-10 0 -40 40zM1866 1824v56 q32 232 152 232h32q120 0 152 -232v-56q-32 -232 -152 -232h-32q-120 0 -152 232z" />
<glyph unicode="4" d="M0 1352v96q0 676 664 1152q364 200 688 200h96q676 0 1152 -664q200 -364 200 -688v-96q0 -676 -664 -1152q-364 -200 -688 -200h-96q-676 0 -1152 664q-200 364 -200 688zM144 1344q0 -460 408 -872q398 -336 848 -336q588 0 1024 528q240 380 240 736q0 588 -528 1024 q-368 232 -680 232h-112q-488 0 -920 -456q-280 -392 -280 -744v-112zM584 1832v56q32 232 152 232h32q120 0 152 -232v-56q-32 -232 -152 -232h-32q-120 0 -152 232zM696 720v48q0 42 400 168q766 296 944 344h24q12 0 48 -48v-40q0 -50 -336 -152q-830 -320 -1008 -368 h-24q-12 0 -48 48zM1872 1840v56q32 232 152 232h32q120 0 152 -232v-56q-32 -232 -152 -232h-32q-120 0 -152 232z" />
<glyph unicode="5" d="M0 1352v96q0 676 664 1152q364 200 688 200h96q676 0 1152 -664q200 -364 200 -688v-96q0 -676 -664 -1152q-364 -200 -688 -200h-96q-676 0 -1152 664q-200 364 -200 688zM136 1400q0 -636 576 -1056q342 -208 688 -208q648 0 1072 600q192 336 192 664q0 620 -552 1040 q-348 224 -712 224q-636 0 -1056 -576q-208 -336 -208 -688zM592 1840v56q32 232 152 232h32q120 0 152 -232v-56q-32 -232 -152 -232h-32q-120 0 -152 232zM688 1216q0 52 72 64q38 0 1328 -488l16 -56q0 -52 -72 -64q-38 0 -1328 488zM1880 1832v56q32 232 152 232h32 q120 0 152 -232v-56q-32 -232 -152 -232h-32q-120 0 -152 232z" />
<glyph unicode="6" horiz-adv-x="3194" d="M6 1344v112q0 582 528 1048q408 296 816 296h112q582 0 1048 -528q296 -408 296 -816v-112q0 -582 -528 -1048q-408 -296 -816 -296h-112q-582 0 -1048 528q-296 408 -296 816zM150 1344q0 -462 416 -880q390 -320 792 -320h96q422 0 816 344q392 400 392 880v80 q0 514 -480 944q-370 264 -744 264h-88q-510 0 -944 -488q-256 -378 -256 -712v-112zM590 1832v56q38 240 160 240h32q120 0 152 -232v-56q-38 -240 -160 -240h-32q-120 0 -152 232zM694 1216q0 52 72 64l640 -224q612 224 640 224h24q12 0 48 -48v-40q0 -50 -376 -168 q-120 -46 -120 -56q470 -162 472 -184q16 -26 16 -48q0 -52 -72 -64q-80 22 -632 224q-598 -224 -632 -224h-24q-12 0 -48 48v48q0 42 488 200q-32 24 -480 192zM1878 1840v56q32 232 152 232h32q160 -56 160 -240v-56q-32 -232 -152 -232h-32q-160 56 -160 240z" />
<glyph unicode="7" horiz-adv-x="3204" d="M6 1352v96q0 676 664 1152q364 200 688 200h96q676 0 1152 -664q200 -364 200 -688v-96q0 -676 -664 -1152q-364 -200 -688 -200h-96q-676 0 -1152 664q-200 364 -200 688zM150 1344q0 -460 408 -872q398 -336 848 -336q588 0 1024 528q240 380 240 736q0 588 -528 1024 q-368 232 -680 232h-112q-488 0 -920 -456q-280 -392 -280 -744v-112zM598 1824v56q32 232 152 232h32q120 0 152 -232v-56q-32 -232 -152 -232h-32q-120 0 -152 232zM838 912v24q0 12 48 48h24q36 0 160 -128q124 128 160 128h8q36 0 160 -128q122 128 168 128h16 q36 0 160 -128q122 128 168 128q52 0 64 -72q0 -34 -128 -160l120 -128v-56q0 -10 -40 -40h-56l-128 120q-126 -128 -160 -128q-76 0 -168 120l-16 8q-126 -128 -160 -128q-46 0 -168 128q-116 -120 -152 -120h-8q-64 0 -64 64v8q0 36 120 152q-128 124 -128 160zM1174 752 q0 -12 56 -56h8q12 0 56 56q0 12 -56 56h-8q-12 0 -56 -56zM1182 1304v16q10 72 72 72h24q72 -10 72 -72v-16q-10 -72 -72 -72h-24q-72 10 -72 72zM1470 1304v16q10 72 72 72h24q72 -10 72 -72v-16q-10 -72 -72 -72h-24q-72 10 -72 72zM1502 752q0 -10 64 -64h8q10 0 64 64 q0 10 -64 64h-8q-10 0 -64 -64zM1886 1832v56q32 232 152 232h32q120 0 152 -232v-56q-32 -232 -152 -232h-32q-120 0 -152 232z" />
<glyph unicode="8" horiz-adv-x="3204" d="M6 1352v96q0 676 664 1152q364 200 688 200h96q676 0 1152 -664q200 -364 200 -688v-96q0 -676 -664 -1152q-364 -200 -688 -200h-96q-676 0 -1152 664q-200 364 -200 688zM150 1344q0 -460 408 -872q398 -336 848 -336q588 0 1024 528q240 380 240 736q0 588 -528 1024 q-368 232 -680 232h-112q-488 0 -920 -456q-280 -392 -280 -744v-112zM542 2152v56q180 192 200 192h32q54 0 224 -208v-40q0 -12 -48 -48h-24q-36 0 -160 120l-128 -112h-56q-10 0 -40 40zM598 1824v56q32 232 152 232h32q120 0 152 -232v-56q-32 -232 -152 -232h-32 q-120 0 -152 232zM1270 840v64q0 10 40 40h40l304 -136q82 -32 144 -32h16q96 0 96 136q34 32 64 32q72 -10 72 -72q0 -206 -200 -240h-32q-234 0 -544 208zM1830 2152v56q180 192 200 192h32q54 0 224 -208v-40q0 -12 -48 -48h-24q-36 0 -160 120l-128 -112h-56 q-10 0 -40 40zM1886 1832v56q32 232 152 232h32q120 0 152 -232v-56q-32 -232 -152 -232h-32q-120 0 -152 232z" />
<glyph unicode="9" horiz-adv-x="3200" d="M-6 1352v96q0 676 664 1152q364 200 688 200h96q676 0 1152 -664q200 -364 200 -688v-96q0 -676 -664 -1152q-364 -200 -688 -200h-96q-676 0 -1152 664q-200 364 -200 688zM138 1344q0 -460 408 -872q398 -336 848 -336q588 0 1024 528q240 380 240 736q0 588 -528 1024 q-368 232 -680 232h-112q-488 0 -920 -456q-280 -392 -280 -744v-112zM530 2152v56q180 192 200 192h32q54 0 224 -208v-40q0 -12 -48 -48h-24q-36 0 -160 120l-128 -112h-56q-10 0 -40 40zM586 1824v56q32 232 152 232h32q120 0 152 -232v-56q-32 -232 -152 -232h-32 q-120 0 -152 232zM1818 2152v56q180 192 200 192h32q54 0 224 -208v-40q0 -12 -48 -48h-24q-36 0 -160 120l-128 -112h-56q-10 0 -40 40zM1874 1832v56q32 232 152 232h32q120 0 152 -232v-56q-32 -232 -152 -232h-32q-120 0 -152 232z" />
<glyph unicode=":" horiz-adv-x="1114" />
<glyph unicode=";" horiz-adv-x="1114" />
<glyph unicode="&#x3c;" horiz-adv-x="2028" />
<glyph unicode="=" horiz-adv-x="2028" />
<glyph unicode="&#x3e;" horiz-adv-x="2028" />
<glyph unicode="?" horiz-adv-x="1496" />
<glyph unicode="@" horiz-adv-x="4038" />
<glyph unicode="A" d="M0 1352v96q0 676 664 1152q364 200 688 200h96q676 0 1152 -664q200 -364 200 -688v-96q0 -676 -664 -1152q-364 -200 -688 -200h-96q-676 0 -1152 664q-200 364 -200 688zM144 1344q0 -460 408 -872q398 -336 848 -336q588 0 1024 528q240 380 240 736q0 588 -528 1024 q-368 232 -680 232h-112q-488 0 -920 -456q-280 -392 -280 -744v-112zM392 1592v56q0 10 40 40h56q140 -152 232 -152h40q96 0 256 152h56q10 0 40 -40v-56q-174 -200 -344 -200h-40q-192 0 -336 200zM392 1896v64q148 200 352 200q206 0 368 -208v-48q0 -10 -40 -40h-40 q-22 0 -160 112q-74 40 -120 40q-128 0 -272 -160h-24q-44 0 -64 40zM672 1768v24q10 72 72 72h24q72 -10 72 -72v-24q-10 -72 -72 -72h-24q-72 10 -72 72zM688 1048l48 40h48q48 0 64 -184q168 -352 552 -352q392 0 552 360q10 176 80 176h8q72 -10 72 -72 q0 -402 -504 -584q-136 -24 -224 -24q-440 0 -656 408q-40 110 -40 232zM1672 1592v56q0 10 40 40h56q140 -152 232 -152h40q96 0 256 152h56q10 0 40 -40v-56q-174 -200 -344 -200h-40q-192 0 -336 200zM1672 1896v64q148 200 352 200q206 0 368 -208v-48q0 -10 -40 -40 h-40q-22 0 -160 112q-74 40 -120 40q-128 0 -272 -160h-24q-44 0 -64 40zM1952 1768v24q10 72 72 72h24q72 -10 72 -72v-24q-10 -72 -72 -72h-24q-72 10 -72 72z" />
<glyph unicode="B" d="M0 1352v96q0 676 664 1152q364 200 688 200h96q676 0 1152 -664q200 -364 200 -688v-96q0 -676 -664 -1152q-364 -200 -688 -200h-96q-676 0 -1152 664q-200 364 -200 688zM144 1344q0 -460 408 -872q398 -336 848 -336q588 0 1024 528q240 380 240 736q0 588 -528 1024 q-368 232 -680 232h-112q-488 0 -920 -456q-280 -392 -280 -744v-112zM592 1824v56q32 232 152 232h32q120 0 152 -232v-56q-32 -232 -152 -232h-32q-120 0 -152 232zM688 624q0 432 512 600q100 24 200 24q504 0 696 -472q16 -104 16 -152q-24 -56 -72 -56q-80 0 -80 152 q-154 384 -552 384h-16q-374 0 -536 -344q-30 -160 -40 -160q0 -12 -32 -32h-48q-48 32 -48 56zM1880 1832v56q32 232 152 232h32q120 0 152 -232v-56q-32 -232 -152 -232h-32q-120 0 -152 232z" />
<glyph unicode="C" d="M0 1352v96q0 676 664 1152q364 200 688 200h96q676 0 1152 -664q200 -364 200 -688v-96q0 -676 -664 -1152q-364 -200 -688 -200h-96q-676 0 -1152 664q-200 364 -200 688zM144 1344q0 -460 408 -872q398 -336 848 -336q588 0 1024 528q240 380 240 736q0 588 -528 1024 q-368 232 -680 232h-112q-488 0 -920 -456q-280 -392 -280 -744v-112zM592 1824v56q32 232 152 232h32q120 0 152 -232v-56q-32 -232 -152 -232h-32q-120 0 -152 232zM688 1200l48 40h48q48 0 64 -184q168 -352 552 -352q392 0 552 360q10 176 80 176h8q72 -10 72 -72 q0 -402 -504 -584q-136 -24 -224 -24q-440 0 -656 408q-40 110 -40 232zM1880 1832v56q32 232 152 232h32q120 0 152 -232v-56q-32 -232 -152 -232h-32q-120 0 -152 232z" />
<glyph unicode="D" d="M0 1352v96q0 676 664 1152q364 200 688 200h96q676 0 1152 -664q200 -364 200 -688v-96q0 -676 -664 -1152q-364 -200 -688 -200h-96q-676 0 -1152 664q-200 364 -200 688zM144 1344q0 -460 408 -872q398 -336 848 -336q588 0 1024 528q240 380 240 736q0 588 -528 1024 q-368 232 -680 232h-112q-488 0 -920 -456q-280 -392 -280 -744v-112zM592 1824v56q32 232 152 232h32q120 0 152 -232v-56q-32 -232 -152 -232h-32q-120 0 -152 232zM1136 928v80q0 160 216 232h80q160 0 232 -216v-80q0 -160 -216 -232h-80q-160 0 -232 216zM1280 976 q18 -120 112 -120h16q112 26 112 112v16q0 94 -120 112q-120 -18 -120 -112v-8zM1880 1832v56q32 232 152 232h32q120 0 152 -232v-56q-32 -232 -152 -232h-32q-120 0 -152 232z" />
<glyph unicode="E" d="M0 1352v96q0 676 664 1152q364 200 688 200h96q676 0 1152 -664q200 -364 200 -688v-96q0 -676 -664 -1152q-364 -200 -688 -200h-96q-676 0 -1152 664q-200 364 -200 688zM144 1344q0 -460 408 -872q398 -336 848 -336q588 0 1024 528q240 380 240 736q0 588 -528 1024 q-368 232 -680 232h-112q-488 0 -920 -456q-280 -392 -280 -744v-112zM424 1528v56q0 10 40 40h56q140 -152 232 -152h40q96 0 256 152h56q10 0 40 -40v-56q-174 -200 -344 -200h-40q-192 0 -336 200zM592 1824v56q32 232 152 232h32q120 0 152 -232v-56q-32 -232 -152 -232 h-32q-120 0 -152 232zM696 976v48q0 12 48 48h1304q12 0 48 -48v-48q0 -12 -48 -48h-1304q-12 0 -48 48zM1688 1528v56q0 10 40 40h56q140 -152 232 -152h40q96 0 256 152h56q10 0 40 -40v-56q-174 -200 -344 -200h-40q-192 0 -336 200zM1880 1832v56q32 232 152 232h32 q120 0 152 -232v-56q-32 -232 -152 -232h-32q-120 0 -152 232z" />
<glyph unicode="F" d="M0 1352v96q0 676 664 1152q364 200 688 200h96q676 0 1152 -664q200 -364 200 -688v-96q0 -676 -664 -1152q-364 -200 -688 -200h-96q-676 0 -1152 664q-200 364 -200 688zM144 1344q0 -460 408 -872q398 -336 848 -336q588 0 1024 528q240 380 240 736q0 588 -528 1024 q-368 232 -680 232h-112q-488 0 -920 -456q-280 -392 -280 -744v-112zM592 1824v56q32 232 152 232h32q120 0 152 -232v-56q-32 -232 -152 -232h-32q-120 0 -152 232zM696 976v48q0 12 48 48h1304q12 0 48 -48v-48q0 -12 -48 -48h-1304q-12 0 -48 48zM1880 1832v56 q32 232 152 232h32q120 0 152 -232v-56q-32 -232 -152 -232h-32q-120 0 -152 232z" />
<glyph unicode="G" d="M0 1352v96q0 676 664 1152q364 200 688 200h96q676 0 1152 -664q200 -364 200 -688v-96q0 -676 -664 -1152q-364 -200 -688 -200h-96q-676 0 -1152 664q-200 364 -200 688zM144 1344q0 -460 408 -872q398 -336 848 -336q588 0 1024 528q240 380 240 736q0 588 -528 1024 q-368 232 -680 232h-112q-488 0 -920 -456q-280 -392 -280 -744v-112zM592 1824v56q32 232 152 232h32q120 0 152 -232v-56q-32 -232 -152 -232h-32q-120 0 -152 232zM688 1200v8q20 40 64 40h1272q88 -16 88 -80q0 -402 -504 -584q-136 -24 -224 -24q-440 0 -656 408 q-40 110 -40 232zM840 1104q0 -150 256 -328q156 -72 304 -72q392 0 552 360l8 40h-1120zM1880 1832v56q32 232 152 232h32q120 0 152 -232v-56q-32 -232 -152 -232h-32q-120 0 -152 232z" />
<glyph unicode="H" d="M0 1352v96q0 676 664 1152q364 200 688 200h96q676 0 1152 -664q200 -364 200 -688v-96q0 -676 -664 -1152q-364 -200 -688 -200h-96q-676 0 -1152 664q-200 364 -200 688zM144 1344q0 -460 408 -872q398 -336 848 -336q588 0 1024 528q240 380 240 736q0 588 -528 1024 q-368 232 -680 232h-112q-488 0 -920 -456q-280 -392 -280 -744v-112zM408 1840v48q0 12 48 48h536q12 0 48 -48v-48q0 -12 -48 -48h-536q-12 0 -48 48zM688 1152v48q0 12 48 48h1304q12 0 48 -48v-48q0 -12 -48 -48h-1304q-12 0 -48 48zM1728 1840v48q0 12 48 48h536 q12 0 48 -48v-48q0 -12 -48 -48h-536q-12 0 -48 48z" />
<glyph unicode="I" d="M0 1352v96q0 676 664 1152q364 200 688 200h96q676 0 1152 -664q200 -364 200 -688v-96q0 -676 -664 -1152q-364 -200 -688 -200h-96q-676 0 -1152 664q-200 364 -200 688zM144 1344q0 -460 408 -872q398 -336 848 -336q588 0 1024 528q240 380 240 736q0 588 -528 1024 q-368 232 -680 232h-112q-488 0 -920 -456q-280 -392 -280 -744v-112zM480 1904v56q0 142 272 168q272 -26 272 -168v-48q0 -236 -192 -352q-30 -16 -64 -16h-32q-198 0 -256 360zM624 1920q34 -232 136 -232q120 72 120 248q0 26 -128 48q-62 -8 -128 -32v-32zM688 1152v48 q0 12 48 48h1304q12 0 48 -48v-48q0 -12 -48 -48h-1304q-12 0 -48 48zM1768 1904v56q0 142 272 168q272 -26 272 -168v-48q0 -236 -192 -352q-30 -16 -64 -16h-32q-198 0 -256 360zM1912 1920q34 -232 136 -232q120 72 120 248q0 26 -128 48q-62 -8 -128 -32v-32z" />
<glyph unicode="J" d="M0 1352v96q0 676 664 1152q364 200 688 200h96q676 0 1152 -664q200 -364 200 -688v-96q0 -676 -664 -1152q-364 -200 -688 -200h-96q-676 0 -1152 664q-200 364 -200 688zM144 1344q0 -460 408 -872q398 -336 848 -336q588 0 1024 528q240 380 240 736q0 588 -528 1024 q-368 232 -680 232h-112q-488 0 -920 -456q-280 -392 -280 -744v-112zM600 1832v56q32 232 152 232h32q120 0 152 -232v-56q-32 -232 -152 -232h-32q-120 0 -152 232zM856 936v8q0 44 48 72h56q40 0 48 -144q112 -208 400 -208q276 0 384 200q22 144 56 144q14 8 32 8 q72 -10 72 -72v-8q0 -292 -392 -400q-94 -16 -160 -16q-384 0 -528 304q-16 60 -16 112zM1592 1680q0 92 360 184h40q274 0 384 -288q-10 -72 -72 -72q-48 0 -120 136q-94 80 -168 80h-24q-120 0 -328 -120h-8q-64 22 -64 80z" />
<glyph unicode="K" d="M0 1352v96q0 676 664 1152q364 200 688 200h96q676 0 1152 -664q200 -364 200 -688v-96q0 -676 -664 -1152q-364 -200 -688 -200h-96q-676 0 -1152 664q-200 364 -200 688zM144 1344q0 -460 408 -872q398 -336 848 -336q588 0 1024 528q240 380 240 736q0 588 -528 1024 q-368 232 -680 232h-112q-488 0 -920 -456q-280 -392 -280 -744v-112zM408 1832v40q0 144 232 240h56q50 -16 72 -16q64 88 144 88q192 -40 192 -168v-40q0 -198 -328 -480h-16q-118 22 -296 200q-56 82 -56 136zM552 1864q0 -102 200 -208q208 234 208 328q0 44 -48 56 q-48 -42 -88 -208l-40 -32h-48q-12 0 -48 48v48q0 58 -24 72q-64 -22 -112 -96v-8zM688 1208q4 0 48 40h48q48 0 64 -184q168 -352 552 -352q392 0 552 360q10 176 80 176h8q72 -10 72 -72q0 -402 -504 -584q-136 -24 -224 -24q-440 0 -656 408q-40 110 -40 232zM1664 1968 q0 162 176 216h24q106 0 176 -128q56 40 104 40q216 -48 216 -208q0 -164 -208 -392q-26 -16 -48 -16q-318 166 -424 424q-16 30 -16 64zM1808 1984q0 -124 288 -336q120 150 120 232q0 64 -80 64q0 -168 -88 -168q-56 0 -112 192q-48 72 -88 72l-40 -48v-8z" />
<glyph unicode="L" d="M0 1352v96q0 676 664 1152q364 200 688 200h96q676 0 1152 -664q200 -364 200 -688v-96q0 -676 -664 -1152q-364 -200 -688 -200h-96q-676 0 -1152 664q-200 364 -200 688zM144 1344q0 -460 408 -872q398 -336 848 -336q588 0 1024 528q240 380 240 736q0 588 -528 1024 q-368 232 -680 232h-112q-488 0 -920 -456q-280 -392 -280 -744v-112zM424 1552v48q120 264 368 264h24q176 0 368 -144l16 -24v-48q0 -10 -40 -40h-64q-172 112 -288 112h-24q-136 0 -256 -208h-64q-10 0 -40 40zM856 936v8q0 44 48 72h56q40 0 48 -144q112 -208 400 -208 q276 0 384 200q22 144 56 144q14 8 32 8q72 -10 72 -72v-8q0 -292 -392 -400q-94 -16 -160 -16q-384 0 -528 304q-16 60 -16 112zM1592 1672q0 92 360 184h40q274 0 384 -288q-10 -72 -72 -72q-48 0 -120 136q-94 80 -168 80h-24q-120 0 -328 -120h-8q-64 22 -64 80z" />
<glyph unicode="M" d="M0 1352v96q0 676 664 1152q364 200 688 200h96q676 0 1152 -664q200 -364 200 -688v-96q0 -676 -664 -1152q-364 -200 -688 -200h-96q-676 0 -1152 664q-200 364 -200 688zM144 1344q0 -460 408 -872q398 -336 848 -336q588 0 1024 528q240 380 240 736q0 588 -528 1024 q-368 232 -680 232h-112q-488 0 -920 -456q-280 -392 -280 -744v-112zM512 1544q192 538 240 552h24q66 0 112 -128q160 -294 160 -328v-8q-10 -72 -72 -72q-52 0 -184 296q-22 -34 -160 -368l-56 -16q-64 26 -64 72zM856 936v8q0 44 48 72h56q40 0 48 -144 q112 -208 400 -208q276 0 384 200q22 144 56 144q14 8 32 8q72 -10 72 -72v-8q0 -292 -392 -400q-94 -16 -160 -16q-384 0 -528 304q-16 60 -16 112zM1728 1608v40q200 448 248 448h48q52 0 232 -536v-40q0 -10 -40 -40h-56q-28 0 -168 368h-8q-128 -274 -160 -280h-56 q-10 0 -40 40z" />
<glyph unicode="N" d="M0 1352v96q0 676 664 1152q364 200 688 200h96q676 0 1152 -664q200 -364 200 -688v-96q0 -676 -664 -1152q-364 -200 -688 -200h-96q-676 0 -1152 664q-200 364 -200 688zM144 1344q0 -460 408 -872q398 -336 848 -336q588 0 1024 528q240 380 240 736q0 588 -528 1024 q-368 232 -680 232h-112q-488 0 -920 -456q-280 -392 -280 -744v-112zM472 1968v40q0 12 48 48h24q552 -184 552 -240v-24q0 -68 -280 -184q-136 -88 -184 -88h-24q-12 0 -48 48v48q20 42 216 128q72 40 72 48q-376 128 -376 176zM928 920v48q92 120 480 120q378 0 472 -120 v-48q0 -256 -416 -328h-104q-260 0 -408 224q-24 40 -24 104zM1080 904q0 -116 288 -168h72q288 52 288 168q-162 40 -328 40q-156 0 -320 -40zM1680 1792v24q0 56 552 240h24q12 0 48 -48v-40q0 -48 -376 -176q0 -8 272 -152l16 -24v-48q0 -12 -48 -48h-16q-58 0 -456 224 q-16 26 -16 48z" />
<glyph unicode="O" d="M0 1352v96q0 676 664 1152q364 200 688 200h96q676 0 1152 -664q200 -364 200 -688v-96q0 -676 -664 -1152q-364 -200 -688 -200h-96q-676 0 -1152 664q-200 364 -200 688zM144 1344q0 -460 408 -872q398 -336 848 -336q588 0 1024 528q240 380 240 736q0 588 -528 1024 q-368 232 -680 232h-112q-488 0 -920 -456q-280 -392 -280 -744v-112zM424 1928v64q148 200 352 200q206 0 368 -208v-48q0 -10 -40 -40h-40q-22 0 -160 112q-74 40 -120 40q-128 0 -272 -160h-24q-44 0 -64 40zM592 1632v64q0 186 160 232h16q160 -46 160 -232v-64 q0 -198 -176 -232q-160 46 -160 232zM688 1048l48 40h48q48 0 64 -184q168 -352 552 -352q392 0 552 360q10 176 80 176h8q72 -10 72 -72q0 -402 -504 -584q-136 -24 -224 -24q-440 0 -656 408q-40 110 -40 232zM1688 1928v64q148 200 352 200q206 0 368 -208v-48 q0 -10 -40 -40h-40q-22 0 -160 112q-74 40 -120 40q-128 0 -272 -160h-24q-44 0 -64 40zM1880 1624v64q0 186 160 232h16q160 -46 160 -232v-64q0 -198 -176 -232q-160 46 -160 232z" />
<glyph unicode="P" d="M0 1352v96q0 676 664 1152q364 200 688 200h96q676 0 1152 -664q200 -364 200 -688v-96q0 -676 -664 -1152q-364 -200 -688 -200h-96q-676 0 -1152 664q-200 364 -200 688zM144 1344q0 -460 408 -872q398 -336 848 -336q588 0 1024 528q240 380 240 736q0 588 -528 1024 q-368 232 -680 232h-112q-488 0 -920 -456q-280 -392 -280 -744v-112zM408 1832v40q0 144 232 240h56q50 -16 72 -16q64 88 144 88q192 -40 192 -168v-40q0 -198 -328 -480h-16q-118 22 -296 200q-56 82 -56 136zM552 1864q0 -102 200 -208q208 234 208 328q0 44 -48 56 q-48 -42 -88 -208l-40 -32h-48q-12 0 -48 48v48q0 58 -24 72q-64 -22 -112 -96v-8zM688 1208q4 0 48 40h48q48 0 64 -184q168 -352 552 -352q392 0 552 360q10 176 80 176h8q72 -10 72 -72q0 -402 -504 -584q-136 -24 -224 -24q-440 0 -656 408q-40 110 -40 232zM1664 1968 q0 162 176 216h24q106 0 176 -128q56 40 104 40q216 -48 216 -208q0 -164 -208 -392q-26 -16 -48 -16q-318 166 -424 424q-16 30 -16 64zM1808 1984q0 -124 288 -336q120 150 120 232q0 64 -80 64q0 -168 -88 -168q-56 0 -112 192q-48 72 -88 72l-40 -48v-8z" />
<glyph unicode="Q" d="M0 1352v96q0 676 664 1152q364 200 688 200h96q676 0 1152 -664q200 -364 200 -688v-96q0 -676 -664 -1152q-364 -200 -688 -200h-96q-676 0 -1152 664q-200 364 -200 688zM144 1344q0 -460 408 -872q398 -336 848 -336q588 0 1024 528q240 380 240 736q0 588 -528 1024 q-368 232 -680 232h-112q-488 0 -920 -456q-280 -392 -280 -744v-112zM424 1552v48q120 264 368 264h24q176 0 368 -144l16 -24v-48q0 -10 -40 -40h-64q-172 112 -288 112h-24q-136 0 -256 -208h-64q-10 0 -40 40zM856 936v8q0 44 48 72h56q40 0 48 -144q112 -208 400 -208 q276 0 384 200q22 144 56 144q14 8 32 8q72 -10 72 -72v-8q0 -292 -392 -400q-94 -16 -160 -16q-384 0 -528 304q-16 60 -16 112zM1592 1672q0 92 360 184h40q274 0 384 -288q-10 -72 -72 -72q-48 0 -120 136q-94 80 -168 80h-24q-120 0 -328 -120h-8q-64 22 -64 80z" />
<glyph unicode="R" d="M0 1352v96q0 676 664 1152q364 200 688 200h96q676 0 1152 -664q200 -364 200 -688v-96q0 -676 -664 -1152q-364 -200 -688 -200h-96q-676 0 -1152 664q-200 364 -200 688zM0 1352v96q0 676 664 1152q364 200 688 200h96q676 0 1152 -664q200 -364 200 -688v-96 q0 -676 -664 -1152q-364 -200 -688 -200h-96q-676 0 -1152 664q-200 364 -200 688zM144 1344q0 -460 408 -872q398 -336 848 -336q588 0 1024 528q240 380 240 736q0 588 -528 1024q-368 232 -680 232h-112q-488 0 -920 -456q-280 -392 -280 -744v-112zM144 1344 q0 -460 408 -872q398 -336 848 -336q588 0 1024 528q240 380 240 736q0 588 -528 1024q-368 232 -680 232h-112q-488 0 -920 -456q-280 -392 -280 -744v-112zM512 1544q192 538 240 552h24q66 0 112 -128q160 -294 160 -328v-8q-10 -72 -72 -72q-52 0 -184 296 q-22 -34 -160 -368l-56 -16q-64 26 -64 72zM928 920v48q92 120 480 120q378 0 472 -120v-48q0 -256 -416 -328h-104q-260 0 -408 224q-24 40 -24 104zM1080 904q0 -116 288 -168h72q288 52 288 168q-162 40 -328 40q-156 0 -320 -40zM1728 1608v40q200 448 248 448h48 q52 0 232 -536v-40q0 -10 -40 -40h-56q-28 0 -168 368h-8q-128 -274 -160 -280h-56q-10 0 -40 40z" />
<glyph unicode="S" d="M0 1352v96q0 676 664 1152q364 200 688 200h96q676 0 1152 -664q200 -364 200 -688v-96q0 -676 -664 -1152q-364 -200 -688 -200h-96q-676 0 -1152 664q-200 364 -200 688zM144 1344q0 -460 408 -872q398 -336 848 -336q588 0 1024 528q240 380 240 736q0 588 -528 1024 q-368 232 -680 232h-112q-488 0 -920 -456q-280 -392 -280 -744v-112zM592 1824v56q32 232 152 232h32q120 0 152 -232v-56q-32 -232 -152 -232h-32q-120 0 -152 232zM648 1720q8 -32 48 -32q32 8 32 48q-8 32 -48 32q-32 -8 -32 -48zM696 848v56q0 72 688 208 q108 16 232 16q390 0 488 -240v-32q0 -12 -48 -48h-40l-120 112q-112 64 -264 64h-40q-286 0 -816 -176h-40q-10 0 -40 40zM704 1928q0 -64 64 -64q50 0 56 64v8q0 64 -64 64q-50 0 -56 -64v-8zM1880 1832v56q32 232 152 232h32q120 0 152 -232v-56q-32 -232 -152 -232h-32 q-120 0 -152 232zM1984 1928q0 -64 64 -64q50 0 56 64v8q0 64 -64 64q-50 0 -56 -64v-8zM2072 1712q8 -32 48 -32q32 8 32 48q-8 32 -48 32q-32 -8 -32 -48z" />
<glyph unicode="T" d="M0 1352v96q0 676 664 1152q364 200 688 200h96q676 0 1152 -664q200 -364 200 -688v-96q0 -676 -664 -1152q-364 -200 -688 -200h-96q-676 0 -1152 664q-200 364 -200 688zM144 1344q0 -460 408 -872q398 -336 848 -336q588 0 1024 528q240 380 240 736q0 588 -528 1024 q-368 232 -680 232h-112q-488 0 -920 -456q-280 -392 -280 -744v-112zM592 1824v56q32 232 152 232h32q120 0 152 -232v-56q-32 -232 -152 -232h-32q-120 0 -152 232zM696 968v56q0 10 40 40h32l552 -120q198 -40 352 -40h96q208 0 208 128q34 32 64 32q72 -10 72 -72 q0 -196 -312 -232h-104q-358 0 -976 176zM1880 1832v56q32 232 152 232h32q120 0 152 -232v-56q-32 -232 -152 -232h-32q-120 0 -152 232z" />
<glyph unicode="U" d="M0 1352v96q0 676 664 1152q364 200 688 200h96q676 0 1152 -664q200 -364 200 -688v-96q0 -676 -664 -1152q-364 -200 -688 -200h-96q-676 0 -1152 664q-200 364 -200 688zM144 1344q0 -460 408 -872q398 -336 848 -336q588 0 1024 528q240 380 240 736q0 588 -528 1024 q-368 232 -680 232h-112q-488 0 -920 -456q-280 -392 -280 -744v-112zM584 1808v56q32 232 152 232h32q120 0 152 -232v-56q-32 -232 -152 -232h-32q-120 0 -152 232zM696 2264v32q0 12 48 48h24q46 0 248 -224q10 0 184 -184v-64q0 -12 -32 -32h-64q-408 390 -408 424z M1200 1000q0 52 72 64h288q72 -10 72 -72q0 -52 -72 -64h-288q-72 10 -72 72zM1592 1912q0 44 376 400q0 24 72 40q52 0 64 -72q0 -44 -376 -400q0 -24 -72 -40q-52 0 -64 72zM1872 1816v56q32 232 152 232h32q120 0 152 -232v-56q-32 -232 -152 -232h-32q-120 0 -152 232z " />
<glyph unicode="V" d="M0 1352v96q0 676 664 1152q364 200 688 200h96q676 0 1152 -664q200 -364 200 -688v-96q0 -676 -664 -1152q-364 -200 -688 -200h-96q-676 0 -1152 664q-200 364 -200 688zM144 1344q0 -460 408 -872q398 -336 848 -336q588 0 1024 528q240 380 240 736q0 588 -528 1024 q-368 232 -680 232h-112q-488 0 -920 -456q-280 -392 -280 -744v-112zM392 1592v56q0 10 40 40h56q140 -152 232 -152h40q96 0 256 152h56q10 0 40 -40v-56q-174 -200 -344 -200h-40q-192 0 -336 200zM688 1048l48 40h48q48 0 64 -184q168 -352 552 -352q392 0 552 360 q10 176 80 176h8q72 -10 72 -72q0 -402 -504 -584q-136 -24 -224 -24q-440 0 -656 408q-40 110 -40 232zM1672 1592v56q0 10 40 40h56q140 -152 232 -152h40q96 0 256 152h56q10 0 40 -40v-56q-174 -200 -344 -200h-40q-192 0 -336 200z" />
<glyph unicode="W" d="M0 1352v96q0 676 664 1152q364 200 688 200h96q676 0 1152 -664q200 -364 200 -688v-96q0 -676 -664 -1152q-364 -200 -688 -200h-96q-676 0 -1152 664q-200 364 -200 688zM136 1400q0 -636 576 -1056q342 -208 688 -208q648 0 1072 600q192 336 192 664q0 620 -552 1040 q-348 224 -712 224q-636 0 -1056 -576q-208 -336 -208 -688zM424 1576v8q116 280 376 280q228 0 400 -160v-64q0 -12 -32 -32h-48q-14 0 -152 72q-82 40 -152 40h-8q-160 0 -264 -192l-24 -16h-56q-40 20 -40 64zM848 928v16q10 72 72 72q80 0 80 -152q122 -200 392 -200h8 q312 0 400 240q0 120 80 120q64 -22 64 -80q0 -270 -336 -392q-114 -32 -224 -32q-332 0 -496 256q-40 82 -40 152zM1864 1832v56q32 232 152 232h32q120 0 152 -232v-56q-32 -232 -152 -232h-32q-120 0 -152 232z" />
<glyph unicode="X" d="M0 1352v96q0 676 664 1152q364 200 688 200h96q676 0 1152 -664q200 -364 200 -688v-96q0 -676 -664 -1152q-364 -200 -688 -200h-96q-676 0 -1152 664q-200 364 -200 688zM144 1344q0 -460 408 -872q398 -336 848 -336q588 0 1024 528q240 380 240 736q0 588 -528 1024 q-368 232 -680 232h-112q-488 0 -920 -456q-280 -392 -280 -744v-112zM592 1824v56q32 232 152 232h32q120 0 152 -232v-56q-32 -232 -152 -232h-32q-120 0 -152 232zM760 680v616q2 16 16 16h1248q16 -2 16 -16v-616q0 -16 -16 -16h-1248q-16 0 -16 16zM904 800h152v112 h-152v-112zM904 1056h152v112h-152v-112zM1192 800h176v112h-176v-112zM1192 1056h176v112h-176v-112zM1504 800h152v112h-152v-112zM1504 1056h152v112h-152v-112zM1792 800h112v112h-112v-112zM1792 1056h112v112h-112v-112zM1880 1832v56q32 232 152 232h32 q120 0 152 -232v-56q-32 -232 -152 -232h-32q-120 0 -152 232z" />
<glyph unicode="Y" d="M0 1352v96q0 676 664 1152q364 200 688 200h96q676 0 1152 -664q200 -364 200 -688v-96q0 -676 -664 -1152q-364 -200 -688 -200h-96q-676 0 -1152 664q-200 364 -200 688zM144 1344q0 -460 408 -872q398 -336 848 -336q588 0 1024 528q240 380 240 736q0 588 -528 1024 q-368 232 -680 232h-112q-488 0 -920 -456q-280 -392 -280 -744v-112zM592 1824v56q32 232 152 232h32q120 0 152 -232v-56q-32 -232 -152 -232h-32q-120 0 -152 232zM688 1056v16q0 90 256 264q110 48 200 48q128 0 248 -104q146 104 280 104q234 0 440 -296v-16 q0 -88 -256 -264q-114 -48 -200 -48q-116 0 -256 104q-134 -104 -272 -104q-234 0 -440 296zM856 1072q130 -168 288 -168q90 0 224 120l40 8q172 -120 192 -120q44 -8 64 -8q142 0 280 168q-134 168 -280 168q-104 0 -232 -120l-40 -8q-16 0 -160 112q-72 16 -104 16 q-136 0 -272 -168zM1880 1832v56q32 232 152 232h32q120 0 152 -232v-56q-32 -232 -152 -232h-32q-120 0 -152 232z" />
<glyph unicode="Z" d="M0 1352v96q0 676 664 1152q364 200 688 200h96q676 0 1152 -664q200 -364 200 -688v-96q0 -676 -664 -1152q-364 -200 -688 -200h-96q-676 0 -1152 664q-200 364 -200 688zM144 1344q0 -460 408 -872q398 -336 848 -336q588 0 1024 528q240 380 240 736q0 588 -528 1024 q-368 232 -680 232h-112q-488 0 -920 -456q-280 -392 -280 -744v-112zM592 1824v56q32 232 152 232h32q120 0 152 -232v-56q-32 -232 -152 -232h-32q-120 0 -152 232zM688 728v8q0 456 512 616q100 24 200 24q504 0 696 -472q16 -104 16 -152q-32 -64 -88 -64h-1272 q-44 0 -64 40zM840 832h1120q0 112 -184 280q-174 120 -368 120h-16q-384 0 -544 -360zM1880 1832v56q32 232 152 232h32q120 0 152 -232v-56q-32 -232 -152 -232h-32q-120 0 -152 232z" />
<glyph unicode="[" horiz-adv-x="1516" />
<glyph unicode="\" horiz-adv-x="1138" />
<glyph unicode="]" horiz-adv-x="1516" />
<glyph unicode="^" horiz-adv-x="2028" />
<glyph unicode="_" horiz-adv-x="2048" />
<glyph unicode="`" horiz-adv-x="2048" />
<glyph unicode="a" d="M0 1352v96q0 676 664 1152q364 200 688 200h96q676 0 1152 -664q200 -364 200 -688v-96q0 -676 -664 -1152q-364 -200 -688 -200h-96q-676 0 -1152 664q-200 364 -200 688zM144 1344q0 -460 408 -872q398 -336 848 -336q588 0 1024 528q240 380 240 736q0 588 -528 1024 q-368 232 -680 232h-112q-488 0 -920 -456q-280 -392 -280 -744v-112zM392 1592v56q0 10 40 40h56q140 -152 232 -152h40q96 0 256 152h56q10 0 40 -40v-56q-174 -200 -344 -200h-40q-192 0 -336 200zM392 1896v64q148 200 352 200q206 0 368 -208v-48q0 -10 -40 -40h-40 q-22 0 -160 112q-74 40 -120 40q-128 0 -272 -160h-24q-44 0 -64 40zM672 1768v24q10 72 72 72h24q72 -10 72 -72v-24q-10 -72 -72 -72h-24q-72 10 -72 72zM688 1048l48 40h48q48 0 64 -184q168 -352 552 -352q392 0 552 360q10 176 80 176h8q72 -10 72 -72 q0 -402 -504 -584q-136 -24 -224 -24q-440 0 -656 408q-40 110 -40 232zM1672 1592v56q0 10 40 40h56q140 -152 232 -152h40q96 0 256 152h56q10 0 40 -40v-56q-174 -200 -344 -200h-40q-192 0 -336 200zM1672 1896v64q148 200 352 200q206 0 368 -208v-48q0 -10 -40 -40 h-40q-22 0 -160 112q-74 40 -120 40q-128 0 -272 -160h-24q-44 0 -64 40zM1952 1768v24q10 72 72 72h24q72 -10 72 -72v-24q-10 -72 -72 -72h-24q-72 10 -72 72z" />
<glyph unicode="b" d="M0 1352v96q0 676 664 1152q364 200 688 200h96q676 0 1152 -664q200 -364 200 -688v-96q0 -676 -664 -1152q-364 -200 -688 -200h-96q-676 0 -1152 664q-200 364 -200 688zM144 1344q0 -460 408 -872q398 -336 848 -336q588 0 1024 528q240 380 240 736q0 588 -528 1024 q-368 232 -680 232h-112q-488 0 -920 -456q-280 -392 -280 -744v-112zM592 1824v56q32 232 152 232h32q120 0 152 -232v-56q-32 -232 -152 -232h-32q-120 0 -152 232zM688 624q0 432 512 600q100 24 200 24q504 0 696 -472q16 -104 16 -152q-24 -56 -72 -56q-80 0 -80 152 q-154 384 -552 384h-16q-374 0 -536 -344q-30 -160 -40 -160q0 -12 -32 -32h-48q-48 32 -48 56zM1880 1832v56q32 232 152 232h32q120 0 152 -232v-56q-32 -232 -152 -232h-32q-120 0 -152 232z" />
<glyph unicode="c" d="M0 1352v96q0 676 664 1152q364 200 688 200h96q676 0 1152 -664q200 -364 200 -688v-96q0 -676 -664 -1152q-364 -200 -688 -200h-96q-676 0 -1152 664q-200 364 -200 688zM144 1344q0 -460 408 -872q398 -336 848 -336q588 0 1024 528q240 380 240 736q0 588 -528 1024 q-368 232 -680 232h-112q-488 0 -920 -456q-280 -392 -280 -744v-112zM592 1824v56q32 232 152 232h32q120 0 152 -232v-56q-32 -232 -152 -232h-32q-120 0 -152 232zM688 1200l48 40h48q48 0 64 -184q168 -352 552 -352q392 0 552 360q10 176 80 176h8q72 -10 72 -72 q0 -402 -504 -584q-136 -24 -224 -24q-440 0 -656 408q-40 110 -40 232zM1880 1832v56q32 232 152 232h32q120 0 152 -232v-56q-32 -232 -152 -232h-32q-120 0 -152 232z" />
<glyph unicode="d" d="M0 1352v96q0 676 664 1152q364 200 688 200h96q676 0 1152 -664q200 -364 200 -688v-96q0 -676 -664 -1152q-364 -200 -688 -200h-96q-676 0 -1152 664q-200 364 -200 688zM144 1344q0 -460 408 -872q398 -336 848 -336q588 0 1024 528q240 380 240 736q0 588 -528 1024 q-368 232 -680 232h-112q-488 0 -920 -456q-280 -392 -280 -744v-112zM592 1824v56q32 232 152 232h32q120 0 152 -232v-56q-32 -232 -152 -232h-32q-120 0 -152 232zM1136 928v80q0 160 216 232h80q160 0 232 -216v-80q0 -160 -216 -232h-80q-160 0 -232 216zM1280 976 q18 -120 112 -120h16q112 26 112 112v16q0 94 -120 112q-120 -18 -120 -112v-8zM1880 1832v56q32 232 152 232h32q120 0 152 -232v-56q-32 -232 -152 -232h-32q-120 0 -152 232z" />
<glyph unicode="e" d="M0 1352v96q0 676 664 1152q364 200 688 200h96q676 0 1152 -664q200 -364 200 -688v-96q0 -676 -664 -1152q-364 -200 -688 -200h-96q-676 0 -1152 664q-200 364 -200 688zM144 1344q0 -460 408 -872q398 -336 848 -336q588 0 1024 528q240 380 240 736q0 588 -528 1024 q-368 232 -680 232h-112q-488 0 -920 -456q-280 -392 -280 -744v-112zM424 1528v56q0 10 40 40h56q140 -152 232 -152h40q96 0 256 152h56q10 0 40 -40v-56q-174 -200 -344 -200h-40q-192 0 -336 200zM592 1824v56q32 232 152 232h32q120 0 152 -232v-56q-32 -232 -152 -232 h-32q-120 0 -152 232zM696 976v48q0 12 48 48h1304q12 0 48 -48v-48q0 -12 -48 -48h-1304q-12 0 -48 48zM1688 1528v56q0 10 40 40h56q140 -152 232 -152h40q96 0 256 152h56q10 0 40 -40v-56q-174 -200 -344 -200h-40q-192 0 -336 200zM1880 1832v56q32 232 152 232h32 q120 0 152 -232v-56q-32 -232 -152 -232h-32q-120 0 -152 232z" />
<glyph unicode="f" d="M0 1352v96q0 676 664 1152q364 200 688 200h96q676 0 1152 -664q200 -364 200 -688v-96q0 -676 -664 -1152q-364 -200 -688 -200h-96q-676 0 -1152 664q-200 364 -200 688zM144 1344q0 -460 408 -872q398 -336 848 -336q588 0 1024 528q240 380 240 736q0 588 -528 1024 q-368 232 -680 232h-112q-488 0 -920 -456q-280 -392 -280 -744v-112zM592 1824v56q32 232 152 232h32q120 0 152 -232v-56q-32 -232 -152 -232h-32q-120 0 -152 232zM696 976v48q0 12 48 48h1304q12 0 48 -48v-48q0 -12 -48 -48h-1304q-12 0 -48 48zM1880 1832v56 q32 232 152 232h32q120 0 152 -232v-56q-32 -232 -152 -232h-32q-120 0 -152 232z" />
<glyph unicode="g" d="M0 1352v96q0 676 664 1152q364 200 688 200h96q676 0 1152 -664q200 -364 200 -688v-96q0 -676 -664 -1152q-364 -200 -688 -200h-96q-676 0 -1152 664q-200 364 -200 688zM144 1344q0 -460 408 -872q398 -336 848 -336q588 0 1024 528q240 380 240 736q0 588 -528 1024 q-368 232 -680 232h-112q-488 0 -920 -456q-280 -392 -280 -744v-112zM592 1824v56q32 232 152 232h32q120 0 152 -232v-56q-32 -232 -152 -232h-32q-120 0 -152 232zM688 1200v8q20 40 64 40h1272q88 -16 88 -80q0 -402 -504 -584q-136 -24 -224 -24q-440 0 -656 408 q-40 110 -40 232zM840 1104q0 -150 256 -328q156 -72 304 -72q392 0 552 360l8 40h-1120zM1880 1832v56q32 232 152 232h32q120 0 152 -232v-56q-32 -232 -152 -232h-32q-120 0 -152 232z" />
<glyph unicode="h" d="M0 1352v96q0 676 664 1152q364 200 688 200h96q676 0 1152 -664q200 -364 200 -688v-96q0 -676 -664 -1152q-364 -200 -688 -200h-96q-676 0 -1152 664q-200 364 -200 688zM144 1344q0 -460 408 -872q398 -336 848 -336q588 0 1024 528q240 380 240 736q0 588 -528 1024 q-368 232 -680 232h-112q-488 0 -920 -456q-280 -392 -280 -744v-112zM408 1840v48q0 12 48 48h536q12 0 48 -48v-48q0 -12 -48 -48h-536q-12 0 -48 48zM688 1152v48q0 12 48 48h1304q12 0 48 -48v-48q0 -12 -48 -48h-1304q-12 0 -48 48zM1728 1840v48q0 12 48 48h536 q12 0 48 -48v-48q0 -12 -48 -48h-536q-12 0 -48 48z" />
<glyph unicode="i" d="M0 1352v96q0 676 664 1152q364 200 688 200h96q676 0 1152 -664q200 -364 200 -688v-96q0 -676 -664 -1152q-364 -200 -688 -200h-96q-676 0 -1152 664q-200 364 -200 688zM144 1344q0 -460 408 -872q398 -336 848 -336q588 0 1024 528q240 380 240 736q0 588 -528 1024 q-368 232 -680 232h-112q-488 0 -920 -456q-280 -392 -280 -744v-112zM480 1904v56q0 142 272 168q272 -26 272 -168v-48q0 -236 -192 -352q-30 -16 -64 -16h-32q-198 0 -256 360zM624 1920q34 -232 136 -232q120 72 120 248q0 26 -128 48q-62 -8 -128 -32v-32zM688 1152v48 q0 12 48 48h1304q12 0 48 -48v-48q0 -12 -48 -48h-1304q-12 0 -48 48zM1768 1904v56q0 142 272 168q272 -26 272 -168v-48q0 -236 -192 -352q-30 -16 -64 -16h-32q-198 0 -256 360zM1912 1920q34 -232 136 -232q120 72 120 248q0 26 -128 48q-62 -8 -128 -32v-32z" />
<glyph unicode="j" d="M0 1352v96q0 676 664 1152q364 200 688 200h96q676 0 1152 -664q200 -364 200 -688v-96q0 -676 -664 -1152q-364 -200 -688 -200h-96q-676 0 -1152 664q-200 364 -200 688zM144 1344q0 -460 408 -872q398 -336 848 -336q588 0 1024 528q240 380 240 736q0 588 -528 1024 q-368 232 -680 232h-112q-488 0 -920 -456q-280 -392 -280 -744v-112zM600 1832v56q32 232 152 232h32q120 0 152 -232v-56q-32 -232 -152 -232h-32q-120 0 -152 232zM856 936v8q0 44 48 72h56q40 0 48 -144q112 -208 400 -208q276 0 384 200q22 144 56 144q14 8 32 8 q72 -10 72 -72v-8q0 -292 -392 -400q-94 -16 -160 -16q-384 0 -528 304q-16 60 -16 112zM1592 1680q0 92 360 184h40q274 0 384 -288q-10 -72 -72 -72q-48 0 -120 136q-94 80 -168 80h-24q-120 0 -328 -120h-8q-64 22 -64 80z" />
<glyph unicode="k" d="M0 1352v96q0 676 664 1152q364 200 688 200h96q676 0 1152 -664q200 -364 200 -688v-96q0 -676 -664 -1152q-364 -200 -688 -200h-96q-676 0 -1152 664q-200 364 -200 688zM144 1344q0 -460 408 -872q398 -336 848 -336q588 0 1024 528q240 380 240 736q0 588 -528 1024 q-368 232 -680 232h-112q-488 0 -920 -456q-280 -392 -280 -744v-112zM408 1832v40q0 144 232 240h56q50 -16 72 -16q64 88 144 88q192 -40 192 -168v-40q0 -198 -328 -480h-16q-118 22 -296 200q-56 82 -56 136zM552 1864q0 -102 200 -208q208 234 208 328q0 44 -48 56 q-48 -42 -88 -208l-40 -32h-48q-12 0 -48 48v48q0 58 -24 72q-64 -22 -112 -96v-8zM688 1208q4 0 48 40h48q48 0 64 -184q168 -352 552 -352q392 0 552 360q10 176 80 176h8q72 -10 72 -72q0 -402 -504 -584q-136 -24 -224 -24q-440 0 -656 408q-40 110 -40 232zM1664 1968 q0 162 176 216h24q106 0 176 -128q56 40 104 40q216 -48 216 -208q0 -164 -208 -392q-26 -16 -48 -16q-318 166 -424 424q-16 30 -16 64zM1808 1984q0 -124 288 -336q120 150 120 232q0 64 -80 64q0 -168 -88 -168q-56 0 -112 192q-48 72 -88 72l-40 -48v-8z" />
<glyph unicode="l" d="M0 1352v96q0 676 664 1152q364 200 688 200h96q676 0 1152 -664q200 -364 200 -688v-96q0 -676 -664 -1152q-364 -200 -688 -200h-96q-676 0 -1152 664q-200 364 -200 688zM144 1344q0 -460 408 -872q398 -336 848 -336q588 0 1024 528q240 380 240 736q0 588 -528 1024 q-368 232 -680 232h-112q-488 0 -920 -456q-280 -392 -280 -744v-112zM424 1552v48q120 264 368 264h24q176 0 368 -144l16 -24v-48q0 -10 -40 -40h-64q-172 112 -288 112h-24q-136 0 -256 -208h-64q-10 0 -40 40zM856 936v8q0 44 48 72h56q40 0 48 -144q112 -208 400 -208 q276 0 384 200q22 144 56 144q14 8 32 8q72 -10 72 -72v-8q0 -292 -392 -400q-94 -16 -160 -16q-384 0 -528 304q-16 60 -16 112zM1592 1672q0 92 360 184h40q274 0 384 -288q-10 -72 -72 -72q-48 0 -120 136q-94 80 -168 80h-24q-120 0 -328 -120h-8q-64 22 -64 80z" />
<glyph unicode="m" d="M0 1352v96q0 676 664 1152q364 200 688 200h96q676 0 1152 -664q200 -364 200 -688v-96q0 -676 -664 -1152q-364 -200 -688 -200h-96q-676 0 -1152 664q-200 364 -200 688zM144 1344q0 -460 408 -872q398 -336 848 -336q588 0 1024 528q240 380 240 736q0 588 -528 1024 q-368 232 -680 232h-112q-488 0 -920 -456q-280 -392 -280 -744v-112zM512 1544q192 538 240 552h24q66 0 112 -128q160 -294 160 -328v-8q-10 -72 -72 -72q-52 0 -184 296q-22 -34 -160 -368l-56 -16q-64 26 -64 72zM856 936v8q0 44 48 72h56q40 0 48 -144 q112 -208 400 -208q276 0 384 200q22 144 56 144q14 8 32 8q72 -10 72 -72v-8q0 -292 -392 -400q-94 -16 -160 -16q-384 0 -528 304q-16 60 -16 112zM1728 1608v40q200 448 248 448h48q52 0 232 -536v-40q0 -10 -40 -40h-56q-28 0 -168 368h-8q-128 -274 -160 -280h-56 q-10 0 -40 40z" />
<glyph unicode="n" d="M0 1352v96q0 676 664 1152q364 200 688 200h96q676 0 1152 -664q200 -364 200 -688v-96q0 -676 -664 -1152q-364 -200 -688 -200h-96q-676 0 -1152 664q-200 364 -200 688zM144 1344q0 -460 408 -872q398 -336 848 -336q588 0 1024 528q240 380 240 736q0 588 -528 1024 q-368 232 -680 232h-112q-488 0 -920 -456q-280 -392 -280 -744v-112zM472 1968v40q0 12 48 48h24q552 -184 552 -240v-24q0 -68 -280 -184q-136 -88 -184 -88h-24q-12 0 -48 48v48q20 42 216 128q72 40 72 48q-376 128 -376 176zM928 920v48q92 120 480 120q378 0 472 -120 v-48q0 -256 -416 -328h-104q-260 0 -408 224q-24 40 -24 104zM1080 904q0 -116 288 -168h72q288 52 288 168q-162 40 -328 40q-156 0 -320 -40zM1680 1792v24q0 56 552 240h24q12 0 48 -48v-40q0 -48 -376 -176q0 -8 272 -152l16 -24v-48q0 -12 -48 -48h-16q-58 0 -456 224 q-16 26 -16 48z" />
<glyph unicode="o" d="M0 1352v96q0 676 664 1152q364 200 688 200h96q676 0 1152 -664q200 -364 200 -688v-96q0 -676 -664 -1152q-364 -200 -688 -200h-96q-676 0 -1152 664q-200 364 -200 688zM144 1344q0 -460 408 -872q398 -336 848 -336q588 0 1024 528q240 380 240 736q0 588 -528 1024 q-368 232 -680 232h-112q-488 0 -920 -456q-280 -392 -280 -744v-112zM424 1928v64q148 200 352 200q206 0 368 -208v-48q0 -10 -40 -40h-40q-22 0 -160 112q-74 40 -120 40q-128 0 -272 -160h-24q-44 0 -64 40zM592 1632v64q0 186 160 232h16q160 -46 160 -232v-64 q0 -198 -176 -232q-160 46 -160 232zM688 1048l48 40h48q48 0 64 -184q168 -352 552 -352q392 0 552 360q10 176 80 176h8q72 -10 72 -72q0 -402 -504 -584q-136 -24 -224 -24q-440 0 -656 408q-40 110 -40 232zM1688 1928v64q148 200 352 200q206 0 368 -208v-48 q0 -10 -40 -40h-40q-22 0 -160 112q-74 40 -120 40q-128 0 -272 -160h-24q-44 0 -64 40zM1880 1624v64q0 186 160 232h16q160 -46 160 -232v-64q0 -198 -176 -232q-160 46 -160 232z" />
<glyph unicode="p" d="M0 1352v96q0 676 664 1152q364 200 688 200h96q676 0 1152 -664q200 -364 200 -688v-96q0 -676 -664 -1152q-364 -200 -688 -200h-96q-676 0 -1152 664q-200 364 -200 688zM144 1344q0 -460 408 -872q398 -336 848 -336q588 0 1024 528q240 380 240 736q0 588 -528 1024 q-368 232 -680 232h-112q-488 0 -920 -456q-280 -392 -280 -744v-112zM408 1832v40q0 144 232 240h56q50 -16 72 -16q64 88 144 88q192 -40 192 -168v-40q0 -198 -328 -480h-16q-118 22 -296 200q-56 82 -56 136zM552 1864q0 -102 200 -208q208 234 208 328q0 44 -48 56 q-48 -42 -88 -208l-40 -32h-48q-12 0 -48 48v48q0 58 -24 72q-64 -22 -112 -96v-8zM688 1208q4 0 48 40h48q48 0 64 -184q168 -352 552 -352q392 0 552 360q10 176 80 176h8q72 -10 72 -72q0 -402 -504 -584q-136 -24 -224 -24q-440 0 -656 408q-40 110 -40 232zM1664 1968 q0 162 176 216h24q106 0 176 -128q56 40 104 40q216 -48 216 -208q0 -164 -208 -392q-26 -16 -48 -16q-318 166 -424 424q-16 30 -16 64zM1808 1984q0 -124 288 -336q120 150 120 232q0 64 -80 64q0 -168 -88 -168q-56 0 -112 192q-48 72 -88 72l-40 -48v-8z" />
<glyph unicode="q" d="M0 1352v96q0 676 664 1152q364 200 688 200h96q676 0 1152 -664q200 -364 200 -688v-96q0 -676 -664 -1152q-364 -200 -688 -200h-96q-676 0 -1152 664q-200 364 -200 688zM144 1344q0 -460 408 -872q398 -336 848 -336q588 0 1024 528q240 380 240 736q0 588 -528 1024 q-368 232 -680 232h-112q-488 0 -920 -456q-280 -392 -280 -744v-112zM424 1552v48q120 264 368 264h24q176 0 368 -144l16 -24v-48q0 -10 -40 -40h-64q-172 112 -288 112h-24q-136 0 -256 -208h-64q-10 0 -40 40zM856 936v8q0 44 48 72h56q40 0 48 -144q112 -208 400 -208 q276 0 384 200q22 144 56 144q14 8 32 8q72 -10 72 -72v-8q0 -292 -392 -400q-94 -16 -160 -16q-384 0 -528 304q-16 60 -16 112zM1592 1672q0 92 360 184h40q274 0 384 -288q-10 -72 -72 -72q-48 0 -120 136q-94 80 -168 80h-24q-120 0 -328 -120h-8q-64 22 -64 80z" />
<glyph unicode="r" d="M0 1352v96q0 676 664 1152q364 200 688 200h96q676 0 1152 -664q200 -364 200 -688v-96q0 -676 -664 -1152q-364 -200 -688 -200h-96q-676 0 -1152 664q-200 364 -200 688zM0 1352v96q0 676 664 1152q364 200 688 200h96q676 0 1152 -664q200 -364 200 -688v-96 q0 -676 -664 -1152q-364 -200 -688 -200h-96q-676 0 -1152 664q-200 364 -200 688zM144 1344q0 -460 408 -872q398 -336 848 -336q588 0 1024 528q240 380 240 736q0 588 -528 1024q-368 232 -680 232h-112q-488 0 -920 -456q-280 -392 -280 -744v-112zM144 1344 q0 -460 408 -872q398 -336 848 -336q588 0 1024 528q240 380 240 736q0 588 -528 1024q-368 232 -680 232h-112q-488 0 -920 -456q-280 -392 -280 -744v-112zM512 1544q192 538 240 552h24q66 0 112 -128q160 -294 160 -328v-8q-10 -72 -72 -72q-52 0 -184 296 q-22 -34 -160 -368l-56 -16q-64 26 -64 72zM928 920v48q92 120 480 120q378 0 472 -120v-48q0 -256 -416 -328h-104q-260 0 -408 224q-24 40 -24 104zM1080 904q0 -116 288 -168h72q288 52 288 168q-162 40 -328 40q-156 0 -320 -40zM1728 1608v40q200 448 248 448h48 q52 0 232 -536v-40q0 -10 -40 -40h-56q-28 0 -168 368h-8q-128 -274 -160 -280h-56q-10 0 -40 40z" />
<glyph unicode="s" d="M0 1352v96q0 676 664 1152q364 200 688 200h96q676 0 1152 -664q200 -364 200 -688v-96q0 -676 -664 -1152q-364 -200 -688 -200h-96q-676 0 -1152 664q-200 364 -200 688zM144 1344q0 -460 408 -872q398 -336 848 -336q588 0 1024 528q240 380 240 736q0 588 -528 1024 q-368 232 -680 232h-112q-488 0 -920 -456q-280 -392 -280 -744v-112zM592 1824v56q32 232 152 232h32q120 0 152 -232v-56q-32 -232 -152 -232h-32q-120 0 -152 232zM648 1720q8 -32 48 -32q32 8 32 48q-8 32 -48 32q-32 -8 -32 -48zM696 848v56q0 72 688 208 q108 16 232 16q390 0 488 -240v-32q0 -12 -48 -48h-40l-120 112q-112 64 -264 64h-40q-286 0 -816 -176h-40q-10 0 -40 40zM704 1928q0 -64 64 -64q50 0 56 64v8q0 64 -64 64q-50 0 -56 -64v-8zM1880 1832v56q32 232 152 232h32q120 0 152 -232v-56q-32 -232 -152 -232h-32 q-120 0 -152 232zM1984 1928q0 -64 64 -64q50 0 56 64v8q0 64 -64 64q-50 0 -56 -64v-8zM2072 1712q8 -32 48 -32q32 8 32 48q-8 32 -48 32q-32 -8 -32 -48z" />
<glyph unicode="t" d="M0 1352v96q0 676 664 1152q364 200 688 200h96q676 0 1152 -664q200 -364 200 -688v-96q0 -676 -664 -1152q-364 -200 -688 -200h-96q-676 0 -1152 664q-200 364 -200 688zM144 1344q0 -460 408 -872q398 -336 848 -336q588 0 1024 528q240 380 240 736q0 588 -528 1024 q-368 232 -680 232h-112q-488 0 -920 -456q-280 -392 -280 -744v-112zM592 1824v56q32 232 152 232h32q120 0 152 -232v-56q-32 -232 -152 -232h-32q-120 0 -152 232zM696 968v56q0 10 40 40h32l552 -120q198 -40 352 -40h96q208 0 208 128q34 32 64 32q72 -10 72 -72 q0 -196 -312 -232h-104q-358 0 -976 176zM1880 1832v56q32 232 152 232h32q120 0 152 -232v-56q-32 -232 -152 -232h-32q-120 0 -152 232z" />
<glyph unicode="u" d="M0 1352v96q0 676 664 1152q364 200 688 200h96q676 0 1152 -664q200 -364 200 -688v-96q0 -676 -664 -1152q-364 -200 -688 -200h-96q-676 0 -1152 664q-200 364 -200 688zM144 1344q0 -460 408 -872q398 -336 848 -336q588 0 1024 528q240 380 240 736q0 588 -528 1024 q-368 232 -680 232h-112q-488 0 -920 -456q-280 -392 -280 -744v-112zM584 1808v56q32 232 152 232h32q120 0 152 -232v-56q-32 -232 -152 -232h-32q-120 0 -152 232zM696 2264v32q0 12 48 48h24q46 0 248 -224q10 0 184 -184v-64q0 -12 -32 -32h-64q-408 390 -408 424z M1200 1000q0 52 72 64h288q72 -10 72 -72q0 -52 -72 -64h-288q-72 10 -72 72zM1592 1912q0 44 376 400q0 24 72 40q52 0 64 -72q0 -44 -376 -400q0 -24 -72 -40q-52 0 -64 72zM1872 1816v56q32 232 152 232h32q120 0 152 -232v-56q-32 -232 -152 -232h-32q-120 0 -152 232z " />
<glyph unicode="v" d="M0 1352v96q0 676 664 1152q364 200 688 200h96q676 0 1152 -664q200 -364 200 -688v-96q0 -676 -664 -1152q-364 -200 -688 -200h-96q-676 0 -1152 664q-200 364 -200 688zM144 1344q0 -460 408 -872q398 -336 848 -336q588 0 1024 528q240 380 240 736q0 588 -528 1024 q-368 232 -680 232h-112q-488 0 -920 -456q-280 -392 -280 -744v-112zM392 1592v56q0 10 40 40h56q140 -152 232 -152h40q96 0 256 152h56q10 0 40 -40v-56q-174 -200 -344 -200h-40q-192 0 -336 200zM688 1048l48 40h48q48 0 64 -184q168 -352 552 -352q392 0 552 360 q10 176 80 176h8q72 -10 72 -72q0 -402 -504 -584q-136 -24 -224 -24q-440 0 -656 408q-40 110 -40 232zM1672 1592v56q0 10 40 40h56q140 -152 232 -152h40q96 0 256 152h56q10 0 40 -40v-56q-174 -200 -344 -200h-40q-192 0 -336 200z" />
<glyph unicode="w" d="M0 1352v96q0 676 664 1152q364 200 688 200h96q676 0 1152 -664q200 -364 200 -688v-96q0 -676 -664 -1152q-364 -200 -688 -200h-96q-676 0 -1152 664q-200 364 -200 688zM136 1400q0 -636 576 -1056q342 -208 688 -208q648 0 1072 600q192 336 192 664q0 620 -552 1040 q-348 224 -712 224q-636 0 -1056 -576q-208 -336 -208 -688zM424 1576v8q116 280 376 280q228 0 400 -160v-64q0 -12 -32 -32h-48q-14 0 -152 72q-82 40 -152 40h-8q-160 0 -264 -192l-24 -16h-56q-40 20 -40 64zM848 928v16q10 72 72 72q80 0 80 -152q122 -200 392 -200h8 q312 0 400 240q0 120 80 120q64 -22 64 -80q0 -270 -336 -392q-114 -32 -224 -32q-332 0 -496 256q-40 82 -40 152zM1864 1832v56q32 232 152 232h32q120 0 152 -232v-56q-32 -232 -152 -232h-32q-120 0 -152 232z" />
<glyph unicode="x" d="M0 1352v96q0 676 664 1152q364 200 688 200h96q676 0 1152 -664q200 -364 200 -688v-96q0 -676 -664 -1152q-364 -200 -688 -200h-96q-676 0 -1152 664q-200 364 -200 688zM144 1344q0 -460 408 -872q398 -336 848 -336q588 0 1024 528q240 380 240 736q0 588 -528 1024 q-368 232 -680 232h-112q-488 0 -920 -456q-280 -392 -280 -744v-112zM592 1824v56q32 232 152 232h32q120 0 152 -232v-56q-32 -232 -152 -232h-32q-120 0 -152 232zM760 680v616q2 16 16 16h1248q16 -2 16 -16v-616q0 -16 -16 -16h-1248q-16 0 -16 16zM904 800h152v112 h-152v-112zM904 1056h152v112h-152v-112zM1192 800h176v112h-176v-112zM1192 1056h176v112h-176v-112zM1504 800h152v112h-152v-112zM1504 1056h152v112h-152v-112zM1792 800h112v112h-112v-112zM1792 1056h112v112h-112v-112zM1880 1832v56q32 232 152 232h32 q120 0 152 -232v-56q-32 -232 -152 -232h-32q-120 0 -152 232z" />
<glyph unicode="y" d="M0 1352v96q0 676 664 1152q364 200 688 200h96q676 0 1152 -664q200 -364 200 -688v-96q0 -676 -664 -1152q-364 -200 -688 -200h-96q-676 0 -1152 664q-200 364 -200 688zM144 1344q0 -460 408 -872q398 -336 848 -336q588 0 1024 528q240 380 240 736q0 588 -528 1024 q-368 232 -680 232h-112q-488 0 -920 -456q-280 -392 -280 -744v-112zM592 1824v56q32 232 152 232h32q120 0 152 -232v-56q-32 -232 -152 -232h-32q-120 0 -152 232zM688 1056v16q0 90 256 264q110 48 200 48q128 0 248 -104q146 104 280 104q234 0 440 -296v-16 q0 -88 -256 -264q-114 -48 -200 -48q-116 0 -256 104q-134 -104 -272 -104q-234 0 -440 296zM856 1072q130 -168 288 -168q90 0 224 120l40 8q172 -120 192 -120q44 -8 64 -8q142 0 280 168q-134 168 -280 168q-104 0 -232 -120l-40 -8q-16 0 -160 112q-72 16 -104 16 q-136 0 -272 -168zM1880 1832v56q32 232 152 232h32q120 0 152 -232v-56q-32 -232 -152 -232h-32q-120 0 -152 232z" />
<glyph unicode="z" d="M0 1352v96q0 676 664 1152q364 200 688 200h96q676 0 1152 -664q200 -364 200 -688v-96q0 -676 -664 -1152q-364 -200 -688 -200h-96q-676 0 -1152 664q-200 364 -200 688zM144 1344q0 -460 408 -872q398 -336 848 -336q588 0 1024 528q240 380 240 736q0 588 -528 1024 q-368 232 -680 232h-112q-488 0 -920 -456q-280 -392 -280 -744v-112zM592 1824v56q32 232 152 232h32q120 0 152 -232v-56q-32 -232 -152 -232h-32q-120 0 -152 232zM688 728v8q0 456 512 616q100 24 200 24q504 0 696 -472q16 -104 16 -152q-32 -64 -88 -64h-1272 q-44 0 -64 40zM840 832h1120q0 112 -184 280q-174 120 -368 120h-16q-384 0 -544 -360zM1880 1832v56q32 232 152 232h32q120 0 152 -232v-56q-32 -232 -152 -232h-32q-120 0 -152 232z" />
<glyph unicode="{" horiz-adv-x="2028" />
<glyph unicode="|" horiz-adv-x="2028" />
<glyph unicode="}" horiz-adv-x="2028" />
<glyph unicode="~" horiz-adv-x="2028" />
<glyph unicode="&#xa1;" horiz-adv-x="1344" />
<glyph unicode="&#xa2;" horiz-adv-x="2278" />
<glyph unicode="&#xa3;" horiz-adv-x="2028" />
<glyph unicode="&#xa4;" horiz-adv-x="2028" />
<glyph unicode="&#xa5;" horiz-adv-x="2524" />
<glyph unicode="&#xa6;" horiz-adv-x="2028" />
<glyph unicode="&#xa7;" horiz-adv-x="2028" />
<glyph unicode="&#xa8;" horiz-adv-x="2048" />
<glyph unicode="&#xa9;" horiz-adv-x="3348" />
<glyph unicode="&#xaa;" horiz-adv-x="1296" />
<glyph unicode="&#xab;" horiz-adv-x="1888" />
<glyph unicode="&#xac;" horiz-adv-x="2028" />
<glyph unicode="&#xad;" horiz-adv-x="1340" />
<glyph unicode="&#xae;" horiz-adv-x="3348" />
<glyph unicode="&#xaf;" horiz-adv-x="1340" />
<glyph unicode="&#xb0;" horiz-adv-x="1348" />
<glyph unicode="&#xb1;" horiz-adv-x="2028" />
<glyph unicode="&#xb2;" horiz-adv-x="2028" />
<glyph unicode="&#xb3;" horiz-adv-x="2028" />
<glyph unicode="&#xb4;" horiz-adv-x="2048" />
<glyph unicode="&#xb5;" horiz-adv-x="2360" />
<glyph unicode="&#xb6;" horiz-adv-x="2048" />
<glyph unicode="&#xb7;" horiz-adv-x="1016" />
<glyph unicode="&#xb8;" horiz-adv-x="2048" />
<glyph unicode="&#xb9;" horiz-adv-x="2028" />
<glyph unicode="&#xba;" horiz-adv-x="1436" />
<glyph unicode="&#xbb;" horiz-adv-x="1888" />
<glyph unicode="&#xbc;" horiz-adv-x="3416" />
<glyph unicode="&#xbd;" horiz-adv-x="3928" />
<glyph unicode="&#xbe;" horiz-adv-x="3416" />
<glyph unicode="&#xbf;" horiz-adv-x="1496" />
<glyph unicode="&#xc0;" horiz-adv-x="3080" />
<glyph unicode="&#xc1;" horiz-adv-x="3080" />
<glyph unicode="&#xc2;" horiz-adv-x="3080" />
<glyph unicode="&#xc3;" horiz-adv-x="3080" />
<glyph unicode="&#xc4;" horiz-adv-x="3080" />
<glyph unicode="&#xc5;" horiz-adv-x="3080" />
<glyph unicode="&#xc6;" horiz-adv-x="4236" />
<glyph unicode="&#xc7;" horiz-adv-x="2798" />
<glyph unicode="&#xc8;" horiz-adv-x="2302" />
<glyph unicode="&#xc9;" horiz-adv-x="2302" />
<glyph unicode="&#xca;" horiz-adv-x="2302" />
<glyph unicode="&#xcb;" horiz-adv-x="2302" />
<glyph unicode="&#xcc;" horiz-adv-x="1314" />
<glyph unicode="&#xcd;" horiz-adv-x="1314" />
<glyph unicode="&#xce;" horiz-adv-x="1314" />
<glyph unicode="&#xcf;" horiz-adv-x="1314" />
<glyph unicode="&#xd0;" horiz-adv-x="3036" />
<glyph unicode="&#xd1;" horiz-adv-x="3108" />
<glyph unicode="&#xd2;" horiz-adv-x="3228" />
<glyph unicode="&#xd3;" horiz-adv-x="3228" />
<glyph unicode="&#xd4;" horiz-adv-x="3228" />
<glyph unicode="&#xd5;" horiz-adv-x="3228" />
<glyph unicode="&#xd6;" horiz-adv-x="3228" />
<glyph unicode="&#xd7;" horiz-adv-x="2028" />
<glyph unicode="&#xd8;" horiz-adv-x="3228" />
<glyph unicode="&#xd9;" horiz-adv-x="3002" />
<glyph unicode="&#xda;" horiz-adv-x="3002" />
<glyph unicode="&#xdb;" horiz-adv-x="3002" />
<glyph unicode="&#xdc;" horiz-adv-x="3002" />
<glyph unicode="&#xdd;" horiz-adv-x="2466" />
<glyph unicode="&#xde;" horiz-adv-x="2240" />
<glyph unicode="&#xdf;" horiz-adv-x="2502" />
<glyph unicode="&#xe0;" horiz-adv-x="1844" />
<glyph unicode="&#xe1;" horiz-adv-x="1844" />
<glyph unicode="&#xe2;" horiz-adv-x="1844" />
<glyph unicode="&#xe3;" horiz-adv-x="1844" />
<glyph unicode="&#xe4;" horiz-adv-x="1844" />
<glyph unicode="&#xe5;" horiz-adv-x="1844" />
<glyph unicode="&#xe6;" horiz-adv-x="2908" />
<glyph unicode="&#xe7;" horiz-adv-x="1810" />
<glyph unicode="&#xe8;" horiz-adv-x="1818" />
<glyph unicode="&#xe9;" horiz-adv-x="1818" />
<glyph unicode="&#xea;" horiz-adv-x="1818" />
<glyph unicode="&#xeb;" horiz-adv-x="1818" />
<glyph unicode="&#xec;" horiz-adv-x="1028" />
<glyph unicode="&#xed;" horiz-adv-x="1028" />
<glyph unicode="&#xee;" horiz-adv-x="1028" />
<glyph unicode="&#xef;" horiz-adv-x="1028" />
<glyph unicode="&#xf0;" horiz-adv-x="2278" />
<glyph unicode="&#xf1;" horiz-adv-x="2216" />
<glyph unicode="&#xf2;" horiz-adv-x="2020" />
<glyph unicode="&#xf3;" horiz-adv-x="2020" />
<glyph unicode="&#xf4;" horiz-adv-x="2020" />
<glyph unicode="&#xf5;" horiz-adv-x="2020" />
<glyph unicode="&#xf6;" horiz-adv-x="2020" />
<glyph unicode="&#xf7;" horiz-adv-x="2028" />
<glyph unicode="&#xf8;" horiz-adv-x="2020" />
<glyph unicode="&#xf9;" horiz-adv-x="2118" />
<glyph unicode="&#xfa;" horiz-adv-x="2118" />
<glyph unicode="&#xfb;" horiz-adv-x="2118" />
<glyph unicode="&#xfc;" horiz-adv-x="2118" />
<glyph unicode="&#xfd;" horiz-adv-x="1736" />
<glyph unicode="&#xfe;" horiz-adv-x="2020" />
<glyph unicode="&#xff;" horiz-adv-x="1736" />
<glyph unicode="&#x2c6;" horiz-adv-x="2048" />
<glyph unicode="&#x2dc;" horiz-adv-x="2048" />
<glyph unicode="&#x2000;" horiz-adv-x="1400" />
<glyph unicode="&#x2001;" horiz-adv-x="2800" />
<glyph unicode="&#x2002;" horiz-adv-x="1400" />
<glyph unicode="&#x2003;" horiz-adv-x="2800" />
<glyph unicode="&#x2004;" horiz-adv-x="933" />
<glyph unicode="&#x2005;" horiz-adv-x="700" />
<glyph unicode="&#x2006;" horiz-adv-x="466" />
<glyph unicode="&#x2007;" horiz-adv-x="466" />
<glyph unicode="&#x2008;" horiz-adv-x="350" />
<glyph unicode="&#x2009;" horiz-adv-x="560" />
<glyph unicode="&#x200a;" horiz-adv-x="155" />
<glyph unicode="&#x2010;" horiz-adv-x="1340" />
<glyph unicode="&#x2011;" horiz-adv-x="1340" />
<glyph unicode="&#x2012;" horiz-adv-x="1340" />
<glyph unicode="&#x2013;" horiz-adv-x="2216" />
<glyph unicode="&#x2014;" horiz-adv-x="4096" />
<glyph unicode="&#x2018;" horiz-adv-x="1114" />
<glyph unicode="&#x2019;" horiz-adv-x="1114" />
<glyph unicode="&#x201a;" horiz-adv-x="1114" />
<glyph unicode="&#x201c;" horiz-adv-x="1820" />
<glyph unicode="&#x201d;" horiz-adv-x="1820" />
<glyph unicode="&#x201e;" horiz-adv-x="1820" />
<glyph unicode="&#x2022;" horiz-adv-x="2048" />
<glyph unicode="&#x2026;" horiz-adv-x="4096" />
<glyph unicode="&#x202f;" horiz-adv-x="560" />
<glyph unicode="&#x2039;" horiz-adv-x="1262" />
<glyph unicode="&#x203a;" horiz-adv-x="1262" />
<glyph unicode="&#x205f;" horiz-adv-x="700" />
<glyph unicode="&#x20ac;" horiz-adv-x="2028" />
<glyph unicode="&#x2122;" horiz-adv-x="2994" />
<glyph unicode="&#x25fc;" horiz-adv-x="2800" d="M0 0v2800h2800v-2800h-2800z" />
</font>
</defs>
</svg>
