<?xml version="1.0" standalone="no"?>
<!DOCTYPE svg PUBLIC "-//W3C//DTD SVG 1.1//EN" "http://www.w3.org/Graphics/SVG/1.1/DTD/svg11.dtd">
<svg xmlns="http://www.w3.org/2000/svg">
<metadata>Copyright (C) 2012 by Fontello project</metadata>
<defs>
<font id="fontelico" horiz-adv-x="1000" >
<font-face font-family="Font Awesome" font-weight="400" font-stretch="normal" units-per-em="1000" ascent="850" descent="-150" />
<missing-glyph horiz-adv-x="1000" />
<glyph glyph-name="emo-happy" unicode="&#xe800;" d="M261 800c-61 0-110-65-110-144 0-80 49-144 110-144s110 65 110 144c0 80-49 144-110 144z m476 0c-61 0-110-65-110-144 0-80 49-144 110-144s110 65 110 144c0 80-49 144-110 144z m208-599c-13 0-27-5-37-16-4-4-8-8-12-12-111-109-253-164-396-165-142-1-284 51-396 156l-3 2-12 12c-21 21-54 21-75-1-20-21-20-55 1-76 4-4 9-8 14-14l3-3c132-124 301-185 469-184 169 1 338 67 468 195 5 5 9 9 14 14 20 21 20 55-1 76-10 10-24 16-37 16z" horiz-adv-x="999" />
<glyph glyph-name="emo-wink" unicode="&#xe801;" d="M261 800c-61 0-110-65-110-144 0-80 49-144 110-144s110 65 110 144c0 80-49 144-110 144z m343-98c-30 0-54-24-54-54s24-54 54-54h267c30 0 54 24 54 54s-24 54-54 54h-267z m342-501c-13 0-27-5-37-16-4-4-8-8-12-12-111-109-253-164-396-165-142-1-284 51-396 156l-3 2-12 12c-21 21-54 21-75-1-20-21-20-55 1-76 4-4 9-8 14-14l3-3c132-124 301-185 469-184 169 1 338 67 468 195 5 5 9 9 14 14 20 21 20 55-1 76-10 10-24 16-37 16z" horiz-adv-x="999" />
<glyph glyph-name="emo-wink2" unicode="&#xe813;" d="M664 800c-61 0-110-65-110-144 0-80 49-144 110-144s110 65 110 144c0 80-49 144-110 144z m-343-98h-267c-30 0-54-24-54-54s24-54 54-54h267c30 0 54 24 54 54s-24 54-54 54z m-262-361c-6 0-12-1-18-3-28-10-42-40-32-68 46-126 136-228 250-289 22-12 45-22 69-31 58-21 120-33 185-33 56 0 112 9 165 26 10 3 21 7 31 11 11 4 21 9 30 13h1c26 13 38 44 25 71-13 26-44 37-70 25-9-4-17-8-24-10-8-3-16-6-25-9-43-14-88-21-133-21-51 0-101 9-148 27-19 7-37 15-55 25-91 49-163 130-200 231-8 21-28 35-50 35z" horiz-adv-x="774" />
<glyph glyph-name="emo-unhappy" unicode="&#xe802;" d="M261 800c-61 0-110-65-110-144 0-80 49-144 110-144s110 65 110 144c0 80-49 144-110 144z m476 0c-61 0-110-65-110-144 0-80 49-144 110-144s110 65 110 144c0 80-49 144-110 144z m-244-599c-165 0-330-62-461-184l-3-3c-6-6-11-10-14-14-21-21-21-55-1-76s54-21 75-1l12 12 3 2c112 105 254 157 396 156 143-1 286-56 396-165 4-4 8-8 12-12 20-21 54-21 75-1 21 21 21 55 1 76-5 5-9 10-14 14-131 128-299 194-468 195-3 0-5 0-8 0z" horiz-adv-x="999" />
<glyph glyph-name="emo-sleep" unicode="&#xe803;" d="M53 693c-10 0-21-3-30-10-24-17-30-50-13-75 45-64 119-102 197-102 70 0 138 32 183 85 20 22 18 56-4 76s-56 18-76-4l-1-1-1-1c-3-4-7-7-10-11l-1-1c-4-4-8-7-11-9-59-43-144-30-187 32-11 15-28 23-45 23z m485 0c-10 0-21-3-30-10-24-17-30-50-13-75 45-64 119-102 197-102 70 0 138 32 183 85 20 22 18 56-4 76s-56 18-76-4l-1-1-1-1c-3-4-7-7-10-11l-1-1c-4-4-8-7-11-9-59-43-144-30-187 32-11 15-28 23-45 23z m-435-578c-30 0-54-24-54-54s24-54 54-54h682c30 0 54 24 54 54s-24 54-54 54h-682z" horiz-adv-x="888" />
<glyph glyph-name="emo-thumbsup" unicode="&#xe804;" d="M744 850c-60 0-109-64-109-143s49-143 109-143 109 64 109 143-49 143-109 143z m-601-81c-29 0-53-24-53-53s24-53 53-53h290c29 0 53 24 53 53s-24 53-53 53h-290z m1040-20c-17 0-35-2-55-7-112-50-108-174-93-266l-131 1c-68 0-124-53-124-123 0-35 8-71 30-99-10-11-18-24-23-38-18-47-10-105 23-144-5-5-18-27-18-27-29-57-10-144 46-179 17-11 39-17 64-17h378c91 3 167 76 167 169v288c0 49-30 108-49 151-25 57-49 115-73 173-30 73-71 119-143 119z m3-115c30 1 43-48 51-67 21-52 43-129 65-180 21-48 37-88 37-104v-255c0-41-35-73-75-74h-332c-17 0-26 9-30 24s-6 34 4 47c6 8 16 13 26 13 21-1 38 17 38 38s-17 38-38 38c-9 0-18 4-24 11-14 16-16 50 0 65 3 3 8 6 12 8 4 1 8 2 12 2 21 0 38 17 38 38s-17 38-38 38c-28 0-34 29-34 50 0 12 7 23 17 29-1 2 189 4 209 4 27 0 47 30 33 55-27 51-45 207 22 221 2 1 4 1 6 1z m-1133-264c-7 0-14-2-21-5-27-12-39-44-27-71 67-148 194-254 344-297 29-8 59-14 90-17 30-3 60-4 91-2h5c29 2 52 28 49 57-2 29-28 52-57 49h-3c-25-2-50-1-74 1-24 3-48 7-72 14-120 34-222 119-276 238-9 20-29 32-50 32z" horiz-adv-x="1447" />
<glyph glyph-name="emo-devil" unicode="&#xe805;" d="M111 850c-2 0-3 0-5 0-1 0-3 0-4 0s-2 0-3-1c0 0-1 0-1 0-8-2-16-6-24-12-1-1-3-2-4-3s-3-2-4-4c-11-11-20-22-28-33-2-2-3-5-5-7-1-2-3-5-4-7-7-12-12-25-17-38-1-3-2-5-2-8-1-2-1-5-2-8-17-65-4-136 19-188 4-10 9-19 15-28 5-9 11-16 16-23 5-6 12-9 20-10 7-1 15 2 21 7h1c1 1 2 2 4 4 0 0 0 0 1 1 0 0 0 1 1 1 4 5 8 10 11 15l2 3 2 3c4 5 8 10 12 14l2 3 2 2c22 23 47 44 74 62 5 4 11 7 16 10s10 6 16 9c0 0 1 0 1 0 7 4 12 10 14 18 2 7 2 15-2 22-3 5-6 9-11 11-1 0-1 1-2 1 0 0-1 0-1 0-1 0-2 1-3 1-7 2-13 5-20 8-1 0-2 1-4 2l-3 2s-1 0-1 0c-6 3-11 7-16 10 0 0-1 1-3 2l-2 2s0 0-1 0c-23 19-36 42-40 67-1 5-1 9-1 14s0 10 1 14c2 10 1 19 0 26 0 2-1 3-1 4s-1 3-1 4c-3 8-8 14-15 19-1 1-3 2-4 2-1 1-3 1-4 2-5 2-10 3-15 3z m777 0c-5 0-10-1-15-3-1-1-3-1-4-2s-3-1-4-2c-6-4-11-10-15-19-1-1-1-3-1-4s-1-3-1-4c-1-7-2-16 0-26 1-5 1-9 1-14s0-10-1-14c-4-24-17-48-40-67 0 0 0 0-1 0l-2-2c-1-1-2-2-3-2-5-4-10-7-16-10 0 0-1 0-1 0l-3-2c-1-1-3-1-4-2-6-3-13-6-20-8-1 0-2-1-3-1 0 0-1 0-1 0-1 0-1-1-2-1-4-3-8-6-11-11-4-7-4-15-2-22s7-14 14-18c0 0 1 0 1 0 5-3 11-6 16-9s11-7 16-10c27-18 52-39 74-62l2-2 2-3c4-4 8-9 12-14l2-3 2-3c4-5 8-10 11-15 0 0 0-1 1-1 0 0 0 0 1-1s2-2 4-4h1c6-5 14-7 21-7 7 1 15 4 20 10 6 6 11 14 16 23s10 18 15 28c23 52 35 123 19 188-1 3-1 5-2 8-1 2-1 5-2 8-4 13-10 26-17 38-1 2-3 5-4 7s-3 5-5 7c-8 12-17 23-28 33-1 1-3 3-4 4s-3 2-4 3c-8 6-16 10-24 12 0 0-1 0-1 0-1 0-2 0-3 1-1 0-3 0-4 0-2 0-3 0-5 0z m-666-388l-1-1c-46-63-46-164 0-227 22-30 53-49 87-49h1c82 0 122 94 122 162v1c0 6 0 11-1 16-2 1-4 2-7 3l-201 95z m555 0l-201-95c-2-1-4-2-7-3 0-5-1-11-1-16v-1c0-68 40-162 122-162h1c34 0 65 19 87 49 46 63 46 164 0 227l-1 1z m22-373c-14 0-27-5-37-16-1-1-1-1-2-2-10-11-20-20-31-30-11-9-22-18-35-26-62-41-135-62-210-58-47 2-92 13-134 33-7 3-14 7-20 10-33 18-64 42-91 72-20 22-53 23-75 3s-23-53-3-75c34-37 74-69 119-93 9-5 18-9 26-13 54-25 113-40 174-42 98-4 193 23 273 76 15 10 30 21 45 34 14 12 27 25 40 39 20 21 20 54-1 75-10 10-24 15-38 15z" horiz-adv-x="1000" />
<glyph glyph-name="emo-surprised" unicode="&#xe806;" d="M110 849c-61 0-110-65-110-144 0-80 49-144 110-144s110 65 110 144c0 80-49 144-110 144z m476 0c-61 0-110-65-110-144 0-80 49-144 110-144s110 65 110 144c0 80-49 144-110 144z m-255-432c-56 0-106-23-143-60s-60-88-60-144v-162c0-56 23-106 60-143s88-60 144-60h34c56 0 106 23 143 60s60 88 60 144v162c0 56-23 107-60 143-37 37-88 60-144 60h-34z m0-107h34c26 0 50-11 68-28 17-17 28-41 28-67v-162c0-26-11-50-28-68-17-17-41-28-67-28h-34c-26 0-50 11-68 28-17 17-28 41-28 67v162c0 26 11 50 28 68 17 17 41 28 67 28z" horiz-adv-x="696" />
<glyph glyph-name="emo-tongue" unicode="&#xe807;" d="M174 800c-61 0-110-65-110-144 0-80 49-144 110-144s110 65 110 144c0 80-49 144-110 144z m476 0c-61 0-110-65-110-144 0-80 49-144 110-144s110 65 110 144c0 80-49 144-110 144z m121-560l-718-1c-29 0-53-24-53-53s24-53 53-53h140v-74c0-55 19-108 59-148 46-47 104-60 165-60 57 0 112 17 154 59 40 40 60 93 60 149v74h140c29 0 53 24 53 53s-24 53-53 53z m-471-108h224v-72c0-28-7-53-28-74-39-39-129-39-168 0-20 20-28 45-28 73v73z" horiz-adv-x="824" />
<glyph glyph-name="emo-coffee" unicode="&#xe808;" d="M1234 850c-17 0-34-8-44-23-54-80-24-144 4-204 14-29 26-56 5-72-23-18-28-51-10-74s51-28 74-10c89 68 60 131 27 201-16 34-33 70-12 100 16 24 10 57-14 74-9 6-19 9-30 9z m-1022-121c-80 0-156-39-202-105-18-25-12-59 13-77s59-12 77 13c44 63 131 77 192 33 4-3 7-6 11-9l1-1c4-3 7-7 11-11l1-1 1-1c20-23 55-24 78-4s25 55 4 78c-46 54-116 87-188 87z m499 0c-80 0-156-39-202-105-18-25-12-59 13-77s59-12 77 13c44 63 131 77 192 33 4-3 7-6 11-9l1-1c4-3 7-7 11-11l1-1 1-1c20-23 55-24 78-4s24 55 4 78c-46 54-116 87-188 87z m206-346c-24 0-44-20-44-44v-278c0-58 24-111 62-149s90-61 148-62h225c2 0 3 0 5 0 14 0 27 2 40 5 15 3 28 8 41 14 55 25 97 74 114 133h31c36 0 69 15 93 39s38 56 38 92v118c0 36-15 69-39 93s-56 38-93 39h-623z m604-101c11 0 21-5 29-12 7-7 12-18 12-29v-109c0-11-5-21-12-29-7-7-18-12-29-12h-62c-21 0-38-16-40-37-4-41-30-77-67-93-7-3-15-6-22-8s-14-3-21-3h-212c-31 0-59 13-80 33l-1 1c-21 21-34 49-34 81v218h537z m-82-55v-97h33c21 0 38 17 38 38v20c0 21-17 38-38 38h-33z m-1131-12c-30 0-55-24-55-55s24-55 55-55h297c30 0 55 24 55 55s-24 55-55 55h-297z" horiz-adv-x="1673" />
<glyph glyph-name="emo-sunglasses" unicode="&#xe809;" d="M495 745c-154 0-309 0-463 0-18 0-32-15-32-33 3-153 129-307 278-309 84-1 163 36 218 95 55-60 134-97 218-95 149 3 273 157 275 309 0 18-14 33-32 33-154 0-309 0-463 0z m319-510c-18 0-35-9-45-26-1-1-1-2-2-3-7-12-15-23-24-34-10-12-19-23-29-32-54-50-126-80-202-80-22 0-43 2-64 7-3 1-6 1-10 2-17 4-34 11-51 18-27 12-58 1-71-26-12-27-1-58 26-71 22-10 45-18 69-25 4-1 9-2 14-3 28-6 58-9 87-10 103 0 201 40 275 109 15 14 28 28 40 43 11 14 22 30 32 47 0 1 1 1 1 2 15 25 7 58-18 73-9 5-18 8-28 8z" horiz-adv-x="990" />
<glyph glyph-name="emo-displeased" unicode="&#xe80a;" d="M171 800c-61 0-110-65-110-144 0-80 49-144 110-144s110 65 110 144c0 80-49 144-110 144z m476 0c-61 0-110-65-110-144 0-80 49-144 110-144s110 65 110 144c0 80-49 144-110 144z m-594-447c-18 0-36-10-46-27-15-26-6-59 20-74l709-379c26-15 59-6 74 20s6 59-20 74l-709 379c-9 5-19 7-28 7z" horiz-adv-x="817" />
<glyph glyph-name="emo-beer" unicode="&#xe80b;" d="M1364 850c-29 0-58-7-86-20-4-2-8-4-12-7-37-22-37-13-80-14-32-1-62-12-89-29-26-16-49-39-64-64-17-27-26-58-25-89 1-26 22-46 48-46h619c26 0 48 21 48 47 2 33-7 64-24 91-15 24-36 45-61 60-25 16-53 26-82 29-21 2-42 0-62-6-3 3-6 5-10 8-36 26-79 40-121 39z m-695-47c-61 0-110-65-110-145s49-145 110-145 110 65 110 145-49 145-110 145z m695-50c30 1 60-12 83-37 15-19 42-24 63-11 11 7 24 9 37 8 14-1 27-7 40-14 9-6 17-13 24-21h-487c7 8 15 16 25 21 13 8 28 14 41 14 11 0 21-2 31-8 20-12 46-9 62 10 22 25 51 38 81 39z m-1040-49h-269c-30 0-54-24-54-54s24-54 54-54h269c30 0 54 24 54 54s-24 54-54 54z m727-190c-24 0-43-19-43-43v-3l-1-412c0-57 23-108 61-146 37-37 89-60 145-60h220c2 0 3 0 5 0 13 0 27 2 39 5 14 3 28 8 41 14 54 25 95 72 112 130h30c35 0 68 15 91 38s38 55 38 90v258c0 35-15 68-38 91s-55 37-91 38h-610z m590-98c11 0 21-5 28-12s12-17 12-28v-249c0-11-5-21-12-28s-17-12-28-12h-60c-20 0-37-15-39-36-4-40-29-75-65-91-7-3-14-6-22-7-7-2-14-2-21-3h-207c-30 0-58 12-78 32l-1 1c-20 20-33 48-33 79v356h102v-349c0-35 69-33 69 0v349h102v-353c0-35 69-33 69 0v353h183z m-80-60v-208h32c21 0 37 17 37 37v133c0 21-17 37-37 37h-32z m-1502-15c-6 0-12-1-18-3-28-10-42-41-32-68 46-127 137-229 251-291 22-12 45-22 69-31 58-21 121-33 186-33 57 0 113 9 166 26 10 3 21 7 31 11 11 4 21 9 30 13h1c27 13 38 45 25 71s-44 38-71 25c-9-4-17-8-24-10-8-3-17-6-25-9-43-14-88-21-133-21-52 0-102 9-149 27-19 7-38 15-55 25-92 49-165 131-202 233-8 22-28 35-50 35z" horiz-adv-x="1789" />
<glyph glyph-name="emo-grin" unicode="&#xe80c;" d="M197 801c-61 0-110-65-110-144 0-80 49-144 110-144s110 65 110 144c0 80-49 144-110 144z m476 0c-61 0-110-65-110-144 0-80 49-144 110-144s110 65 110 144c0 80-49 144-110 144z m144-480h-765c-29 0-52-24-52-54 3-201 238-351 422-355 186-3 442 157 448 355 0 29-24 53-53 53z m-700-106h633c-61-121-190-201-330-196-130 4-246 82-303 196z" horiz-adv-x="870" />
<glyph glyph-name="emo-angry" unicode="&#xe80d;" d="M53 738c-20 0-39-11-48-30-13-27-1-58 25-71l152-80c-3-46 8-93 34-128 21-28 51-49 87-49 90 0 127 107 121 179-120 53-232 115-348 174-7 4-15 5-23 5z m894 0c-8 0-16-2-23-5-117-59-229-121-348-174-5-72 31-179 121-179 36 0 67 21 87 49 26 35 37 82 34 128l152 80c27 13 38 44 25 71-9 19-28 30-48 30z m-453-537c-165 0-330-62-461-184l-3-3c-6-6-11-10-14-14-21-21-21-55-1-76s54-21 75-1l12 12 3 2c112 105 254 157 396 156 143-1 286-56 396-165 4-4 8-8 12-12 20-21 54-21 75-1 21 21 21 55 1 76-5 5-9 10-14 14-131 128-299 194-468 195-3 0-5 0-8 0z" horiz-adv-x="1000" />
<glyph glyph-name="emo-saint" unicode="&#xe80e;" d="M489 841c-115-1-229-11-321-30-103-22-167-57-167-102s64-80 167-102c190-40 475-40 665 0 103 22 167 57 167 102s-64 80-167 102c-98 21-221 31-344 30z m11-89c193 0 350-19 350-43s-157-43-350-43-350 19-350 43 157 43 350 43z m-334-359c-30 0-54-24-54-54s24-54 54-54h186c30 0 54 24 54 54s-24 54-54 54h-186z m482 0c-30 0-54-24-54-54s24-54 54-54h186c30 0 54 24 54 54s-24 54-54 54h-186z m152-301c-14 0-27-5-37-16-1-1-1-1-2-2-10-11-20-20-31-30-11-9-22-18-35-26-62-41-135-62-210-58-47 2-92 13-134 33-7 3-14 7-20 10-33 18-64 42-91 72-20 22-53 23-75 3s-23-53-3-75c34-37 74-68 119-93 9-5 18-9 26-13 54-25 113-40 174-42 98-4 193 23 273 76 15 10 30 21 45 34 14 12 27 25 40 39 20 21 20 54-1 75-10 10-24 15-38 15z" horiz-adv-x="999" />
<glyph glyph-name="emo-cry" unicode="&#xe80f;" d="M278 787c-8 0-16-2-23-5l-128-62-80-38c-2-1-4-2-7-3 0-5-1-11-1-16v-1c0-68 40-162 122-162h1c34 0 65 19 87 49 26 35 37 82 34 128l18 9c27 13 38 44 25 71-9 19-28 30-48 30z m212 0c-20 0-39-11-48-30-13-27-1-58 25-71l18-9c-3-46 8-93 34-128 22-30 53-49 87-49h1c82 0 121 94 122 162v1c0 5 0 11-1 16-2 1-4 2-7 3l-80 38-128 62c-7 4-15 5-23 5z m279-302c-7 0-15-4-21-15-42-73-96-259 27-259s73 181 16 260c-6 8-14 14-22 14z m-512-138c-56 0-112-9-165-26-10-3-21-7-31-11-11-4-21-9-30-13h-1c-26-13-38-44-25-71 13-26 44-37 70-25 9 4 17 8 24 10 8 3 16 6 25 9 43 14 88 21 133 21 51 0 101-9 148-27 19-7 37-15 55-25 91-49 163-130 200-231 10-28 40-42 68-32s42 40 32 68c-46 126-136 228-250 289-22 12-45 22-69 31-58 21-120 33-185 33z" horiz-adv-x="851" />
<glyph glyph-name="emo-shoot" unicode="&#xe810;" d="M53 850c-20 0-39-11-48-30-13-27-1-58 25-71l152-80c-3-46 8-93 34-128 21-28 51-49 87-49 90 0 127 107 121 179-120 53-232 115-348 174-7 4-15 5-23 5z m519-169c-30 0-54-24-54-54s24-54 54-54h186c30 0 54 24 54 54s-24 54-54 54h-186z m619-87c-41 0-78-16-105-43l-2-2c-5-5-10-11-15-17-11-15-19-32-24-51-18-7-35-14-52-23-28-14-55-30-82-48-73-50-163-159-201-265-8-22-14-44-17-66-3-21-4-43-2-64v-5c9-67 37-114 78-139 9-5 19-10 28-13 8-3 16-4 25-6 2 0 4-1 6-1h4c54-3 100-2 146-1 20 1 41 1 60 1 119 1 143 92 168 184 7 26 14 51 23 71h219c84 0 127 45 147 101 4 10 7 21 9 32l289-1h2c29 0 52 23 52 52v221c0 21-9 39-22 53-12 12-27 20-45 22-3 1-6 1-10 1h-50c-19 0-36-8-49-19l-1-1-2-2c-9-9-16-20-19-33h-163c-13 18-31 33-51 43-5 3-10 5-14 7l-4 2c-14 5-29 8-45 9-2 0-4 0-6 0h-275z m278-105c4 0 8-1 12-3h1c2-1 3-1 4-2 9-5 17-13 21-23 9-22 31-34 53-32h237c19 0 35 10 44 24v-109l-285 1c-29 0-52-23-53-52 0-3 0-7-1-13v-1c0-6-1-12-3-18-1-6-3-11-4-16-6-17-20-32-49-32h-249c-19 0-36-10-45-25-4-6-9-13-12-20-6 4-35-97-37-104-14-53-28-106-67-106-22 0-42-1-62-1-42-1-85-2-136 1h-5c-2 0-3 1-5 1-2 1-4 2-6 3-14 9-24 30-29 64v2c-1 11-1 24 1 37 2 15 6 30 12 46 31 86 104 174 162 214 23 16 46 29 69 41 23 11 47 21 70 29 22 7 36 28 36 50v2c0 9 4 18 9 25 1 2 3 4 5 5 8 8 20 13 32 13h278z m-1027-176c-123 0-241-43-333-120-18-15-35-31-51-48s-31-36-45-55c-17-24-11-57 13-74s57-11 74 13c11 16 23 31 36 44 13 14 26 26 41 38 74 61 168 95 266 95 18 0 36-1 55-4 2 0 1 0 9-1 15-2 30-5 45-9 28-8 57 9 65 38 8 28-9 57-38 65-19 5-37 9-56 12-1 0-3 0-11 1-22 3-45 4-68 4z" horiz-adv-x="1948" />
<glyph glyph-name="emo-squint" unicode="&#xe811;" d="M128 607c-30 0-54-24-54-54s24-54 54-54h267c30 0 54 24 54 54s-24 54-54 54h-267z m476 0c-30 0-54-24-54-54s24-54 54-54h267c30 0 54 24 54 54s-24 54-54 54h-267z m342-406c-13 0-27-5-37-16-4-4-8-8-12-12-111-109-253-164-396-165-142-1-284 51-396 156l-3 2-12 12c-21 21-54 21-75-1-20-21-20-55 1-76 4-4 9-8 14-14l3-3c132-124 301-185 469-184 169 1 338 67 468 195 5 5 9 9 14 14 20 21 20 55-1 76-10 10-24 16-37 16z" horiz-adv-x="999" />
<glyph glyph-name="emo-laugh" unicode="&#xe812;" d="M206 742c-78 0-152-38-197-102-17-24-11-58 13-75s58-11 75 13c43 61 128 74 187 32 3-3 7-6 11-9l1-1c4-3 7-7 10-11l1-1 1-1c20-22 54-24 76-4s24 53 4 76c-45 53-113 85-183 85z m485 0c-78 0-152-38-197-102-17-24-11-58 13-75s58-11 75 13c43 61 128 74 187 32 3-3 7-6 11-9l1-1c4-3 7-7 10-11l1-1 1-1c20-22 54-24 76-4s24 53 4 76c-45 53-113 85-183 85z m149-420h-765c-29 0-52-24-52-54 3-201 238-351 422-355 186-3 442 157 448 355 0 29-24 53-53 53z m-700-106h633c-61-121-190-201-330-196-130 4-246 82-303 196z" horiz-adv-x="893" />
<glyph glyph-name="spin1" unicode="&#xe830;" d="M496 850c-176 0-331-90-421-226-18-27-33-55-45-85-12-29-22-60-28-92 0 0 0-1 0-1 0-1 0-2 0-2 0-6 5-12 12-12h101c5 0 10 3 11 9 29 113 109 206 213 254 20 9 42 17 64 22 30 8 62 12 94 12 25 0 50-3 75-7 5-1 9-2 14-3s10-2 14-4c5-1 10 1 13 5l50 87c1 1 1 2 1 3 2 6-1 13-7 15-21 7-43 13-65 17-4 1-9 2-13 2-27 4-54 7-82 7z m327-114c-4 0-8-2-10-6l-50-87c-3-5-2-11 2-15 30-29 55-63 74-100 4-7 7-15 10-22 20-46 31-97 31-151 0-77-23-149-62-209-8-12-16-23-25-34s-18-21-28-30c-4-4-5-9-2-14l50-87c0-1 1-2 2-2 4-5 12-5 16-1 58 52 104 117 134 190 6 14 11 29 15 44 14 46 21 94 21 144 0 108-34 209-92 291-11 16-23 31-37 46-13 15-27 28-41 41-1 1-1 1-2 1-2 1-4 1-6 2z m-811-468c-1 0-2 0-2 0-6-1-10-7-9-14 34-166 149-302 302-366 30-12 61-22 93-28s66-10 100-10c40 0 79 5 117 14 7 2 14 4 22 6 7 2 14 4 21 7 1 0 2 1 3 1 6 3 7 10 4 16l-50 87c-3 4-8 7-13 5-14-4-28-7-42-9-3 0-5-1-8-1-17-2-35-4-52-4-128 0-242 63-312 160 0 0 0 0 0 1-14 19-25 39-35 60s-18 43-24 66c-1 6-6 10-12 10h-101z" horiz-adv-x="1000" />
<glyph glyph-name="spin2" unicode="&#xe831;" d="M46 144s0 0 0 1c-8 18-15 36-21 55s-11 38-15 57c-19 99-9 204 35 298 3 6 10 8 15 5 1 0 1-1 2-1l80-59c5-3 6-10 4-15-5-12-9-25-12-37-4-13-6-26-8-39-11-68-3-137 22-201 2-5 0-11-4-13l-80-56c-5-4-12-2-16 3 0 1-1 1-1 2z m120 575s0 0 1 0c15 13 30 26 46 37 16 12 33 22 50 32 89 49 193 71 297 60 6-1 11-6 10-13 0-1 0-2-1-2l-32-93c-2-6-7-9-13-8-13 1-26 1-40 0s-27-2-40-4c-68-11-133-40-186-83-4-3-10-3-14 0l-78 58c-5 4-6 11-2 16 0 1 1 1 2 2z m589 65s0 0 1 0c17-10 34-20 50-32s31-24 46-38c75-69 128-160 149-262 1-6-3-12-9-13-1 0-2 0-2 0l-99 1c-6 0-11 4-12 10-3 13-7 25-12 37-5 13-10 25-16 37-31 61-79 113-137 150-5 3-6 8-5 13l31 92c2 6 9 9 15 7 1 0 1-1 2-1z m244-535s0 0 0-1c-4-19-9-38-15-57s-14-37-22-55c-43-92-114-170-205-221-6-3-13-1-16 5 0 1-1 1-1 2l-30 94c-2 6 1 11 6 14 11 7 22 15 32 23 11 8 21 17 30 27 49 48 84 109 101 176 1 5 6 9 11 9l98-1c6 0 11-5 11-12 0-1 0-2 0-2z m-438-395s0 0-1 0c-20-2-40-3-59-3-20 0-40 1-60 4-101 12-198 55-276 125-5 4-5 11 0 16 1 1 1 1 2 2l81 57c5 3 11 3 15-1 10-8 21-16 32-23s23-14 35-20c61-31 131-45 200-41 5 0 10-3 12-8l29-92c2-6-2-12-8-14-1 0-1 0-2 0z" horiz-adv-x="1000" />
<glyph glyph-name="spin3" unicode="&#xe832;" d="M494 850c-266 0-482-210-494-473-1-18 13-19 13-19h84c16 0 19 9 20 18 9 199 175 358 377 358 108 0 205-45 274-118l-59-57c-10-12-10-27 5-32l247-50c21-5 46 11 38 44l-58 228c-1 9-16 22-29 12l-64-60c-90 92-215 148-353 148z m410-509c-16 0-19-9-20-18-9-199-175-358-377-358-108 0-205 45-274 118l59 57c10 12 10 27-5 32l-247 50c-21 5-46-11-38-44l58-228c1-9 16-22 29-12l64 60c90-92 215-148 353-148 266 0 482 210 494 473 1 18-13 19-13 19h-84z" horiz-adv-x="1000" />
<glyph glyph-name="spin4" unicode="&#xe834;" d="M498 850c-114 0-227-39-320-116 173 140 427 130 588-31 134-134 163-333 89-495-10-29-6-50 12-68 21-21 61-23 84 0 3 3 12 14 15 24 71 180 33 393-112 539-98 98-227 147-356 147z m-408-274c-15 0-29-6-40-16-3-3-12-14-15-24-71-180-33-393 112-539 185-185 479-195 676-31-173-140-427-130-588 31-134 134-163 333-89 495 10 29 6 50-12 68-11 11-27 17-44 16z" horiz-adv-x="1001" />
<glyph glyph-name="spin5" unicode="&#xe838;" d="M462 850c-6 0-12-5-12-12v-182c0-6 5-12 12-12h69s1 0 1 0c6 0 12 5 12 12v182c0 6-5 12-12 12h-69s-1 0-1 0z m250-47c-4 0-8-2-10-6l-91-158c-3-6-1-13 4-16l60-35s0 0 1 0c6-3 13-1 16 4l91 158c3 6 1 13-4 16l-61 35c-2 1-4 1-5 2z m-428-3c-2 0-4-1-5-2l-61-35c-5-3-7-10-4-16l91-157s0 0 0-1c3-6 10-7 16-4l61 35c5 3 7 10 4 16l-91 157s0 0 0 1c-2 4-6 6-10 6z m620-162c-2 0-4-1-5-2l-157-91s0 0-1 0c-6-3-7-10-4-16l35-61c3-5 10-7 16-4l157 91s0 0 1 0c6 3 7 10 4 16l-35 61c-2 4-6 6-10 6z m-810-5c-4 0-8-2-10-6l-35-61c-3-6-1-13 4-16l158-91c6-3 13-1 16 4l35 60s0 0 0 1c3 6 1 13-4 16l-158 91c-2 1-4 1-5 2z m713-234c-6 0-12-5-12-12v-69s0-1 0-1c0-6 5-12 12-12h182c6 0 12 5 12 12v69s0 1 0 1c0 6-5 12-12 12h-182z m-795-5c-6 0-12-5-12-12v-69s0-1 0-1c0-6 5-12 12-12h182c6 0 12 5 12 12v69s0 1 0 1c0 6-5 12-12 12h-182z m773-153c-4 0-8-2-10-6l-35-60s0 0 0-1c-3-6-1-13 4-16l158-91c6-3 13-1 16 4l35 61c3 6 1 13-4 16l-158 91c-2 1-4 1-5 2z m-566-5c-2 0-4-1-5-2l-157-91s0 0-1 0c-6-3-7-10-4-16l35-61c3-5 10-7 16-4l157 91s0 0 1 0c6 3 7 10 4 16l-35 61c-2 4-6 6-10 6z m467-121c-2 0-4-1-5-2l-61-35c-5-3-7-10-4-16l91-157s0 0 0-1c3-6 10-7 16-4l61 35c5 3 7 10 4 16l-91 157s0 0 0 1c-2 4-6 6-10 6z m-366-3c-4 0-8-2-10-6l-91-158c-3-6-1-13 4-16l61-35c6-3 13-1 16 4l91 158c3 6 1 13-4 16l-60 35s0 0-1 0c-2 1-4 2-5 2z m148-57c-6 0-12-5-12-12v-182c0-6 5-12 12-12h69s1 0 1 0c6 0 12 5 12 12v182c0 6-5 12-12 12h-69s-1 0-1 0z" horiz-adv-x="1000" />
<glyph glyph-name="spin6" unicode="&#xe839;" d="M855 9c-188-189-520-171-704 13-191 191-200 494-28 696 11 13 21 25 35 34 37 23 85 18 117-13 30-30 36-76 17-112-5-9-9-15-16-22-140-151-145-379-8-516 153-153 407-121 541 34 107 123 143 297 78 451-84 198-305 291-510 222 236 83 492-23 588-251 70-167 37-355-72-494-11-15-24-29-37-42z" horiz-adv-x="1000" />
<glyph glyph-name="firefox" unicode="&#xe840;" d="M504-137c-216 0-387 126-466 306-88 200-18 521 139 663l-6-157c8 10 68 13 77 0 32 62 136 108 220 110-32-27-106-124-99-174 41-13 103-13 136-15 10-5 8-40-12-68-26-36-97-49-97-49l8-106-78 37c-25-63 35-120 98-109 69 12 93 57 142 54 48-3 67-29 61-55-8-30-60-25-60-25-44-70-102-100-197-92 144-119 338-11 387 86s6 242-43 283c58-25 99-51 119-107 11 125-46 267-149 350 193-56 311-206 314-445s-211-488-496-488z" horiz-adv-x="1000" />
<glyph glyph-name="chrome" unicode="&#xe841;" d="M498 850c-147-1-291-67-387-186l154-237c39 111 151 182 267 170l414-22c-42 84-109 157-196 208-79 46-166 67-252 67z m-417-226c-52-79-82-173-82-274 0-250 183-457 423-494l128 252c-116-22-233 39-281 147l-188 370z m885-94l-282-15c77-89 82-221 14-317l-226-348c94-5 190 16 278 66 216 125 304 387 217 613z m-466-11c-93 0-169-76-169-169s76-169 169-169 169 76 169 169-76 169-169 169z" horiz-adv-x="1000" />
<glyph glyph-name="opera" unicode="&#xe842;" d="M426-150c-567 0-567 1000 0 1000s567-1000 0-1000z m0 92c238 0 238 817 0 817s-238-817 0-817z" horiz-adv-x="851" />
<glyph glyph-name="ie" unicode="&#xe843;" d="M844 850c-81-1-181-46-281-106-239 35-499-104-510-386 60 93 224 257 367 301v-14c-179-90-571-612-361-773 91-69 311 37 345 76 29-5 58-8 89-8 201 0 371 124 424 292h-301c-12-57-55-93-120-93-103 0-126 69-126 152h561c29 203-114 384-306 439 174 114 363 161 299-104h19c35 109 22 191-38 213-18 7-37 10-58 10-1 0-3 0-4 0z m-352-303c79 0 128-47 128-128h-252c0 77 46 128 124 128z m-367-422c59-83 150-144 256-170-77-59-226-84-266-52-48 40-36 124 10 223z" horiz-adv-x="944" />
<glyph glyph-name="crown" unicode="&#xe844;" d="M419 822c-39 0-71-32-71-72s32-72 71-72 74 32 74 72-34 72-74 72z m-48-222c-40-119-101-152-101-152s-52 145-109 231c-23-52-47-86-96-99-1-45 51-209 56-291h600c3 79 56 256 56 289-38 15-85 51-96 101-63-86-109-231-109-231s-61 33-101 152c-27-13-78-13-100 0z m-297 222c-39 0-74-32-74-72s34-72 74-72c39 0 71 32 71 72s-32 72-71 72z m47-603v-119h600c0 43 0 80 0 119z m644 603c-40 0-72-32-72-72s32-72 72-72 72 32 72 72-32 72-72 72z" horiz-adv-x="837" />
<glyph glyph-name="crown-plus" unicode="&#xe845;" d="M419 822c-39 0-71-32-71-72s32-72 71-72 74 32 74 72-34 72-74 72z m-48-222c-40-119-101-152-101-152s-52 145-109 231c-23-52-47-86-96-99-1-45 51-209 56-291h362v72h248c5 72 35 158 46 216-38 15-85 51-96 101-63-86-109-231-109-231s-61 33-101 152c-27-13-78-13-100 0z m-297 222c-39 0-74-32-74-72s34-72 74-72c39 0 71 32 71 72s-32 72-71 72z m47-603v-119h230v110h131v9z m644 603c-40 0-72-32-72-72s32-72 72-72 72 32 72 72-32 72-72 72z m-196-817c-36 0-107 0-146 0 0 31 0 103 0 139 49 0 94 0 146 0 0 49 0 98 0 146 25 0 85 0 139 0 0-46 0-95 0-146 46 0 92 0 146 0 0-45 0-102 0-139-43 0-98 0-146 0 0-48 0-103 0-146-53 0-100 0-139 0 0 52 0 123 0 146z" horiz-adv-x="853" />
<glyph glyph-name="crown-minus" unicode="&#xe846;" d="M419 822c-39 0-71-32-71-72s32-72 71-72 74 32 74 72-34 72-74 72z m-48-222c-40-119-101-152-101-152s-52 145-109 231c-23-52-47-86-96-99-1-45 51-209 56-291h600c3 79 56 256 56 289-38 15-85 51-96 101-63-86-109-231-109-231s-61 33-101 152c-27-13-78-13-100 0z m-297 222c-39 0-74-32-74-72s34-72 74-72c39 0 71 32 71 72s-32 72-71 72z m47-603v-119h230v110h370v9z m644 603c-40 0-72-32-72-72s32-72 72-72 72 32 72 72-32 72-72 72z m-342-817c0 32 0 106 0 144 123 0 152 0 430 0 0-47 0-105 0-144-113 0-333 0-430 0z" horiz-adv-x="853" />
<glyph glyph-name="marquee" unicode="&#xe847;" d="M0 850v-143h143v143h-143z m286 0v-143h143v143h-143z m286 0v-143h143v143h-143z m286 0v-143h143v143h-143z m-857-286v-143h143v143h-143z m857 0v-143h143v143h-143z m-857-286v-143h143v143h-143z m857 0v-143h143v143h-143z m-857-286v-143h143v143h-143z m286 0v-143h143v143h-143z m286 0v-143h143v143h-143z m286 0v-143h143v143h-143z" horiz-adv-x="1000" />
</font>
</defs>
</svg>
